微博 微信

Hao4K影音

电影频道
电影封面:
片  名: 保罗4k
电影分类: 科幻 冒险 喜剧 
国  家: 美国 英国 
年  代: 2012年
分 辨 率: 4K(3840x2160)
电影格式: MKV|REMUX 
画质标准: HDR 其他 
音质编码: 其他AAC 
电影声道: 5.1声道 
帧数/FPS: 23.976 FPS
电影语言: 英文原版 
资源大小: 5 GB
导  演: 格雷格·莫托拉
豆瓣评分: 7.6 分
中文字幕: /thread-52767-1-1.html
剧情简介: 格雷姆(西蒙·佩吉 Simon Pegg 饰)与克莱夫(尼克·弗罗斯特 Nick Frost 饰)是一对来自英国的极客好友,每天生活中充斥着外星人事件、漫画故事、科幻点子,今次又跑到美国来参加漫展,顺道探访外星人爱好者圣地:内华达州51区,没想到在路上偶遇一个真正的外星 人——60年前被困在地球,又被科研基地囚禁研究,而今终于逃出来的保罗(塞斯·罗根 Seth Rogen 配音)。不出所料的是,保罗长得一副ET样,超能力一流,而出乎他们意料的是,保罗是个满口美式俏皮话和脏话的“痞子”外星人,三个难兄难弟走上“帮保罗回家”的路途,后面紧追不舍的是国土安全局探员佐尔(杰森·贝特曼 Jason Bateman 饰)和他的笨搭档,一心想抓保罗回研究基地……
  本片是英国金牌喜剧搭档西蒙·佩吉和尼克·弗罗斯特继《僵尸肖恩》和《热血警探》之后再度爆笑合作。
外星人保罗 / 我们撞到外星人(台)/保罗4k Paul (2011) EE (2160p BluRay x265 HEVC AI 10bit AAC 5.1 电影信息
  1. Video
  2. ID                                       : 1
  3. Format                                   : HEVC
  4. Format/Info                              : High Efficiency Video Coding
  5. Format profile                           : Main [email protected]@Main
  6. Codec ID                                 : V_MPEGH/ISO/HEVC
  7. Duration                                 : 1 h 49 min
  8. Bit rate                                 : 6 001 kb/s
  9. Width                                    : 3 840 pixels
  10. Height                                   : 1 632 pixels
  11. Display aspect ratio                     : 2.35:1
  12. Frame rate mode                          : Constant
  13. Frame rate                               : 23.976 (24000/1001) FPS
  14. Color space                              : YUV
  15. Chroma subsampling                       : 4:2:0
  16. Bit depth                                : 10 bits
  17. Bits/(Pixel*Frame)                       : 0.040
  18. Stream size                              : 4.58 GiB (93%)
  19. Writing library                          : x265 3.2+9-971180b100f8:[Windows][GCC 9.2.0][64 bit] 10bit
  20. Encoding settings                        : cpuid=1111039 / frame-threads=3 / numa-pools=12 / wpp / no-pmode / no-pme / no-psnr / ssim / log-level=2 / input-csp=1 / input-res=3840x1632 / interlace=0 / total-frames=157235 / level-idc=0 / high-tier=1 / uhd-bd=0 / ref=4 / no-allow-non-conformance / no-repeat-headers / annexb / no-aud / no-hrd / info / hash=0 / no-temporal-layers / open-gop / min-keyint=23 / keyint=250 / gop-lookahead=0 / bframes=8 / b-adapt=2 / b-pyramid / bframe-bias=40 / rc-lookahead=80 / lookahead-slices=4 / scenecut=40 / radl=0 / no-splice / no-intra-refresh / ctu=64 / min-cu-size=8 / rect / no-amp / max-tu-size=32 / tu-inter-depth=1 / tu-intra-depth=1 / limit-tu=0 / rdoq-level=2 / dynamic-rd=0.00 / ssim-rd / signhide / no-tskip / nr-intra=0 / nr-inter=0 / constrained-intra / strong-intra-smoothing / max-merge=3 / limit-refs=3 / limit-modes / me=3 / subme=3 / merange=57 / temporal-mvp / no-frame-dup / no-hme / weightp / no-weightb / no-analyze-src-pics / deblock=0:0 / sao / no-sao-non-deblock / rd=4 / selective-sao=4 / early-skip / rskip / no-fast-intra / no-tskip-fast / no-cu-lossless / no-b-intra / splitrd-skip / rdpenalty=0 / psy-rd=2.45 / psy-rdoq=1.50 / no-rd-refine / no-lossless / cbqpoffs=0 / crqpoffs=0 / rc=abr / bitrate=6000 / qcomp=0.60 / qpstep=4 / stats-write=0 / stats-read=2 / cplxblur=20.0 / qblur=0.5 / ipratio=1.40 / pbratio=1.30 / aq-mode=3 / aq-strength=0.40 / cutree / zone-count=0 / no-strict-cbr / qg-size=32 / no-rc-grain / qpmax=69 / qpmin=0 / no-const-vbv / sar=0 / overscan=0 / videoformat=5 / range=0 / colorprim=2 / transfer=2 / colormatrix=2 / chromaloc=0 / display-window=0 / cll=0,0 / min-luma=0 / max-luma=1023 / log2-max-poc-lsb=8 / vui-timing-info / vui-hrd-info / slices=1 / no-opt-qp-pps / no-opt-ref-list-length-pps / multi-pass-opt-rps / scenecut-bias=0.05 / no-opt-cu-delta-qp / no-aq-motion / no-hdr / no-hdr-opt / no-dhdr10-opt / no-idr-recovery-sei / analysis-load / analysis-reuse-level=10 / scale-factor=0 / refine-intra=0 / refine-inter=0 / refine-mv=1 / refine-ctu-distortion=0 / limit-sao / ctu-info=0 / no-lowpass-dct / refine-analysis-type=0 / copy-pic=1 / max-ausize-factor=1.0 / no-dynamic-refine / no-single-sei / no-hevc-aq / no-svt / no-field / qp-adaptation-range=1.00
  21. Default                                  : Yes
  22. Forced                                   : No

  23. Audio
  24. ID                                       : 2
  25. Format                                   : AAC
  26. Format/Info                              : Advanced Audio Codec
  27. Format profile                           : LC
  28. Codec ID                                 : A_AAC
  29. Duration                                 : 1 h 49 min
  30. Bit rate                                 : 450 kb/s
  31. Channel(s)                               : 6 channels
  32. Channel positions                        : Front: L C R, Side: L R, LFE
  33. Sampling rate                            : 48.0 kHz
  34. Frame rate                               : 46.875 FPS (1024 spf)
  35. Compression mode                         : Lossy
  36. Delay relative to video                  : 9 ms
  37. Stream size                              : 352 MiB (7%)
  38. Language                                 : English
  39. Default                                  : No
  40. Forced                                   : No

  41. Subtitle #1
  42. ID                                       : 3
  43. Format                                   : PGS
  44. Muxing mode                              : zlib
  45. Codec ID                                 : S_HDMV/PGS
  46. Codec ID/Info                            : Picture based subtitle format used on BDs/HD-DVDs
  47. Duration                                 : 1 h 43 min
  48. Bit rate                                 : 53.0 kb/s
  49. Count of elements                        : 4231
  50. Stream size                              : 39.1 MiB (1%)
  51. Language                                 : English
  52. Default                                  : No
  53. Forced                                   : No

  54. Subtitle #2
  55. ID                                       : 4
  56. Format                                   : VobSub
  57. Muxing mode                              : zlib
  58. Codec ID                                 : S_VOBSUB
  59. Codec ID/Info                            : Picture based subtitle format used on DVDs
  60. Duration                                 : 1 h 43 min
  61. Bit rate                                 : 11.0 kb/s
  62. Count of elements                        : 1646
  63. Stream size                              : 8.09 MiB (0%)
  64. Language                                 : Spanish
  65. Default                                  : No
  66. Forced                                   : No

  67. Subtitle #3
  68. ID                                       : 5
  69. Format                                   : VobSub
  70. Muxing mode                              : zlib
  71. Codec ID                                 : S_VOBSUB
  72. Codec ID/Info                            : Picture based subtitle format used on DVDs
  73. Duration                                 : 1 h 43 min
  74. Bit rate                                 : 11.2 kb/s
  75. Count of elements                        : 1647
  76. Stream size                              : 8.30 MiB (0%)
  77. Language                                 : French
  78. Default                                  : No
  79. Forced                                   : No

  80. Subtitle #4
  81. ID                                       : 6
  82. Format                                   : UTF-8
  83. Codec ID                                 : S_TEXT/UTF8
  84. Codec ID/Info                            : UTF-8 Plain Text
  85. Duration                                 : 1 h 46 min
  86. Bit rate                                 : 102 b/s
  87. Count of elements                        : 1729
  88. Stream size                              : 80.0 KiB (0%)
  89. Language                                 : Arabic
  90. Default                                  : No
  91. Forced                                   : No

  92. Subtitle #5
  93. ID                                       : 7
  94. Format                                   : UTF-8
  95. Codec ID                                 : S_TEXT/UTF8
  96. Codec ID/Info                            : UTF-8 Plain Text
  97. Duration                                 : 1 h 43 min
  98. Bit rate                                 : 62 b/s
  99. Count of elements                        : 1516
  100. Stream size                              : 47.6 KiB (0%)
  101. Language                                 : Portuguese
  102. Default                                  : No
  103. Forced                                   : No

  104. Subtitle #6
  105. ID                                       : 8
  106. Format                                   : UTF-8
  107. Codec ID                                 : S_TEXT/UTF8
  108. Codec ID/Info                            : UTF-8 Plain Text
  109. Duration                                 : 1 h 48 min
  110. Bit rate                                 : 61 b/s
  111. Count of elements                        : 1601
  112. Stream size                              : 48.9 KiB (0%)
  113. Language                                 : Danish
  114. Default                                  : No
  115. Forced                                   : No

  116. Subtitle #7
  117. ID                                       : 9
  118. Format                                   : UTF-8
  119. Codec ID                                 : S_TEXT/UTF8
  120. Codec ID/Info                            : UTF-8 Plain Text
  121. Duration                                 : 1 h 43 min
  122. Bit rate                                 : 55 b/s
  123. Count of elements                        : 1095
  124. Stream size                              : 42.3 KiB (0%)
  125. Language                                 : Dutch
  126. Default                                  : No
  127. Forced                                   : No

  128. Subtitle #8
  129. ID                                       : 10
  130. Format                                   : UTF-8
  131. Codec ID                                 : S_TEXT/UTF8
  132. Codec ID/Info                            : UTF-8 Plain Text
  133. Duration                                 : 1 h 49 min
  134. Bit rate                                 : 103 b/s
  135. Count of elements                        : 1665
  136. Stream size                              : 82.9 KiB (0%)
  137. Language                                 : Persian
  138. Default                                  : No
  139. Forced                                   : No

  140. Subtitle #9
  141. ID                                       : 11
  142. Format                                   : UTF-8
  143. Codec ID                                 : S_TEXT/UTF8
  144. Codec ID/Info                            : UTF-8 Plain Text
  145. Duration                                 : 1 h 43 min
  146. Bit rate                                 : 63 b/s
  147. Count of elements                        : 1600
  148. Stream size                              : 48.5 KiB (0%)
  149. Language                                 : Norwegian
  150. Default                                  : No
  151. Forced                                   : No

  152. Subtitle #10
  153. ID                                       : 12
  154. Format                                   : UTF-8
  155. Codec ID                                 : S_TEXT/UTF8
  156. Codec ID/Info                            : UTF-8 Plain Text
  157. Duration                                 : 1 h 43 min
  158. Bit rate                                 : 60 b/s
  159. Count of elements                        : 1387
  160. Stream size                              : 46.1 KiB (0%)
  161. Language                                 : Romanian
  162. Default                                  : No
  163. Forced                                   : No

  164. Subtitle #11
  165. ID                                       : 13
  166. Format                                   : UTF-8
  167. Codec ID                                 : S_TEXT/UTF8
  168. Codec ID/Info                            : UTF-8 Plain Text
  169. Duration                                 : 1 h 49 min
  170. Bit rate                                 : 139 b/s
  171. Count of elements                        : 1544
  172. Stream size                              : 111 KiB (0%)
  173. Language                                 : Thai
  174. Default                                  : No
  175. Forced                                   : No

  176. Subtitle #12
  177. ID                                       : 14
  178. Format                                   : UTF-8
  179. Codec ID                                 : S_TEXT/UTF8
  180. Codec ID/Info                            : UTF-8 Plain Text
  181. Duration                                 : 1 h 43 min
  182. Bit rate                                 : 90 b/s
  183. Count of elements                        : 1643
  184. Stream size                              : 68.8 KiB (0%)
  185. Language                                 : Vietnamese
  186. Default                                  : No
  187. Forced                                   : No

  188. Menu
  189. 00:00:00.000                             : en:Chapter 01
  190. 00:05:41.299                             : en:Chapter 02
  191. 00:13:11.791                             : en:Chapter 03
  192. 00:19:07.229                             : en:Chapter 04
  193. 00:26:19.035                             : en:Chapter 05
  194. 00:31:34.058                             : en:Chapter 06
  195. 00:34:08.004                             : en:Chapter 07
  196. 00:39:42.671                             : en:Chapter 08
  197. 00:44:13.150                             : en:Chapter 09
  198. 00:47:44.403                             : en:Chapter 10
  199. 00:55:14.936                             : en:Chapter 11
  200. 01:00:51.773                             : en:Chapter 12
  201. 01:05:03.733                             : en:Chapter 13
  202. 01:11:37.459                             : en:Chapter 14
  203. 01:16:23.787                             : en:Chapter 15
  204. 01:23:24.374                             : en:Chapter 16
  205. 01:26:02.448                             : en:Chapter 17
  206. 01:32:11.234                             : en:Chapter 18
  207. 01:36:07.178                             : en:Chapter 19
  208. 01:41:07.394                             : en:Chapter 20
复制代码

外星人保罗 / 我们撞到外星人(台)/保罗4k Paul (2011) EE (2160p BluRay x265 HEVC AI 10bit AAC 5.1 电影下载

保罗4k Paul (2011) EE (2160p BluRay x265 HEVC AI 10bit AAC 5.1【5 GB】
保罗4k.txt (84 Bytes)
回复

使用道具 举报

全部回复10

lywzj238 发表于 2020-12-24 07:41:25

lywzj238 板凳

2020-12-24 07:41:25

谢谢分享好电影
回复 支持 反对

使用道具 举报

xxw8888 发表于 2020-12-24 10:42:38

xxw8888 地板

2020-12-24 10:42:38

谢谢分享好电影
回复 支持 反对

使用道具 举报

弗兰克大帝 发表于 2020-12-24 10:52:23

弗兰克大帝 5#

2020-12-24 10:52:23

感谢分享,这个电影养活了非常多的视频制作者,然后我感觉疯狂外星人里面,外星人的造型也是模仿的这个。
回复 支持 反对

使用道具 举报

蠟筆 发表于 2020-12-24 12:30:55

蠟筆 6#

2020-12-24 12:30:55

爆米花电影
回复 支持 反对

使用道具 举报

jerbil 发表于 2020-12-24 12:33:27

jerbil 7#

2020-12-24 12:33:27

感谢感谢分享好资源
回复 支持 反对

使用道具 举报

hlj1222 发表于 2020-12-25 10:26:55

hlj1222 8#

2020-12-25 10:26:55

感谢楼主分享这么好的外星人电影
回复 支持 反对

使用道具 举报

福7555 发表于 2020-12-26 20:08:30

福7555 9#

2020-12-26 20:08:30

没有字幕啊
回复 支持 反对

使用道具 举报

苏默金武 发表于 2020-12-30 23:21:19

苏默金武 11#

2020-12-30 23:21:19

https://www.hao4k.cn/thread-52767-1-1.html双语完美字幕已提供下载!!!(最近忙,耽误了,会努力加油跟上好片片速度)
回复 支持 反对

使用道具 举报

   发表回复

您需要登录后才可以回帖 登录 | 立即注册

返回列表 本版积分规则

  • 在线客服

  • 返回顶部