微博 微信

Hao4K影音

电影频道
电影封面:
片  名: 城市英雄4k
电影分类: 犯罪 惊悚 剧情 
国  家: 美国 
年  代: 90年代
分 辨 率: 4K(3840x2160)
电影格式: MKV|REMUX 
画质标准: 其他 
音质编码: 其他AAC 
电影声道: 5.1声道 
帧数/FPS: 23.976 FPS
电影语言: 英文原版 
资源大小: 5.1 GB
导  演: 乔·舒马赫
豆瓣评分: 8.0 分
中文字幕: -
剧情简介: 迈克尔·道格拉斯扮演的威廉·福斯特是一家军工场的工程师,被解雇后心情很压抑。因离婚,小女儿的生日没被邀请,恰好路上堵车,他弃车走进一家杂货铺,想找点零钱打电话,却遭到刁难,他操起垒球棒砸了铺子。在公园休息时,又和流氓打了一架;在快餐店里因和服务生发生争执,他拔出从流氓那里缴获的手枪一阵乱射,此时他已完全失控。最后,他面对退休警官的枪口,不禁自问:“我是坏人吗?”
堕落 / 怒火风暴 / 崩溃/城市英雄4k Falling Down (1993) (2160p BluRay x265 HEVC AI 10bit AAC 5.1 电影信息
  1. Video
  2. ID : 1
  3. Format : HEVC
  4. Format/Info : High Efficiency Video Coding
  5. Format profile : Main [email protected]@Main
  6. Codec ID : V_MPEGH/ISO/HEVC
  7. Duration : 1 h 52 min
  8. Bit rate : 6 000 kb/s
  9. Width : 3 808 pixels
  10. Height : 1 584 pixels
  11. Display aspect ratio : 2.40:1
  12. Frame rate mode : Constant
  13. Frame rate : 23.976 (24000/1001) FPS
  14. Color space : YUV
  15. Chroma subsampling : 4:2:0
  16. Bit depth : 10 bits
  17. Bits/(Pixel*Frame) : 0.041
  18. Stream size : 4.72 GiB (93%)
  19. Writing library : x265 3.2+9-971180b100f8:[Windows][GCC 9.2.0][64 bit] 10bit
  20. Encoding settings : cpuid=1111039 / frame-threads=3 / numa-pools=12 / wpp / no-pmode / no-pme / no-psnr / ssim / log-level=2 / input-csp=1 / input-res=3808x1584 / interlace=0 / total-frames=161982 / level-idc=0 / high-tier=1 / uhd-bd=0 / ref=4 / no-allow-non-conformance / no-repeat-headers / annexb / no-aud / no-hrd / info / hash=0 / no-temporal-layers / open-gop / min-keyint=23 / keyint=250 / gop-lookahead=0 / bframes=8 / b-adapt=2 / b-pyramid / bframe-bias=40 / rc-lookahead=80 / lookahead-slices=4 / scenecut=40 / radl=0 / no-splice / no-intra-refresh / ctu=64 / min-cu-size=8 / no-rect / no-amp / max-tu-size=32 / tu-inter-depth=1 / tu-intra-depth=1 / limit-tu=0 / rdoq-level=2 / dynamic-rd=0.00 / ssim-rd / signhide / no-tskip / nr-intra=0 / nr-inter=0 / constrained-intra / strong-intra-smoothing / max-merge=3 / limit-refs=3 / limit-modes / me=3 / subme=3 / merange=57 / temporal-mvp / no-frame-dup / no-hme / weightp / no-weightb / no-analyze-src-pics / deblock=0:0 / sao / no-sao-non-deblock / rd=4 / selective-sao=4 / no-early-skip / rskip / no-fast-intra / no-tskip-fast / no-cu-lossless / no-b-intra / no-splitrd-skip / rdpenalty=0 / psy-rd=3.50 / psy-rdoq=2.50 / no-rd-refine / no-lossless / cbqpoffs=0 / crqpoffs=0 / rc=abr / bitrate=6000 / qcomp=0.60 / qpstep=4 / stats-write=0 / stats-read=2 / cplxblur=20.0 / qblur=0.5 / ipratio=1.40 / pbratio=1.30 / aq-mode=3 / aq-strength=0.40 / cutree / zone-count=0 / no-strict-cbr / qg-size=32 / no-rc-grain / qpmax=69 / qpmin=0 / no-const-vbv / sar=0 / overscan=0 / videoformat=5 / range=0 / colorprim=1 / transfer=1 / colormatrix=1 / chromaloc=0 / display-window=0 / cll=0,0 / min-luma=0 / max-luma=1023 / log2-max-poc-lsb=8 / vui-timing-info / vui-hrd-info / slices=1 / no-opt-qp-pps / no-opt-ref-list-length-pps / multi-pass-opt-rps / scenecut-bias=0.05 / no-opt-cu-delta-qp / no-aq-motion / no-hdr / no-hdr-opt / no-dhdr10-opt / no-idr-recovery-sei / analysis-load / analysis-reuse-level=10 / scale-factor=0 / refine-intra=0 / refine-inter=0 / refine-mv=1 / refine-ctu-distortion=0 / limit-sao / ctu-info=0 / no-lowpass-dct / refine-analysis-type=0 / copy-pic=1 / max-ausize-factor=1.0 / no-dynamic-refine / no-single-sei / no-hevc-aq / no-svt / no-field / qp-adaptation-range=1.00
  21. Default : Yes
  22. Forced : No
  23. Color range : Limited
  24. Color primaries : BT.709
  25. Transfer characteristics : BT.709
  26. Matrix coefficients : BT.709

  27. Audio
  28. ID : 2
  29. Format : AAC
  30. Format/Info : Advanced Audio Codec
  31. Format profile : LC
  32. Codec ID : A_AAC
  33. Duration : 1 h 52 min
  34. Bit rate : 464 kb/s
  35. Channel(s) : 6 channels
  36. Channel positions : Front: L C R, Side: L R, LFE
  37. Sampling rate : 48.0 kHz
  38. Frame rate : 46.875 FPS (1024 spf)
  39. Compression mode : Lossy
  40. Delay relative to video : 9 ms
  41. Stream size : 373 MiB (7%)
  42. Language : English
  43. Default : No
  44. Forced : No

  45. Subtitle #1
  46. ID : 3
  47. Format : UTF-8
  48. Codec ID : S_TEXT/UTF8
  49. Codec ID/Info : UTF-8 Plain Text
  50. Duration : 1 h 46 min
  51. Bit rate : 56 b/s
  52. Count of elements : 1428
  53. Stream size : 44.3 KiB (0%)
  54. Title : English
  55. Language : English
  56. Default : No
  57. Forced : No

  58. Subtitle #2
  59. ID : 4
  60. Format : UTF-8
  61. Codec ID : S_TEXT/UTF8
  62. Codec ID/Info : UTF-8 Plain Text
  63. Duration : 1 h 48 min
  64. Bit rate : 46 b/s
  65. Count of elements : 1290
  66. Stream size : 36.5 KiB (0%)
  67. Title : French
  68. Language : French
  69. Default : No
  70. Forced : No

  71. Subtitle #3
  72. ID : 5
  73. Format : UTF-8
  74. Codec ID : S_TEXT/UTF8
  75. Codec ID/Info : UTF-8 Plain Text
  76. Duration : 1 h 48 min
  77. Bit rate : 50 b/s
  78. Count of elements : 1435
  79. Stream size : 39.7 KiB (0%)
  80. Title : Spanish
  81. Language : Spanish
  82. Default : No
  83. Forced : No

  84. Subtitle #4
  85. ID : 6
  86. Format : UTF-8
  87. Codec ID : S_TEXT/UTF8
  88. Codec ID/Info : UTF-8 Plain Text
  89. Duration : 1 h 48 min
  90. Bit rate : 49 b/s
  91. Count of elements : 992
  92. Stream size : 39.1 KiB (0%)
  93. Title : Finnish
  94. Language : Finnish
  95. Default : No
  96. Forced : No

  97. Subtitle #5
  98. ID : 7
  99. Format : UTF-8
  100. Codec ID : S_TEXT/UTF8
  101. Codec ID/Info : UTF-8 Plain Text
  102. Duration : 1 h 48 min
  103. Bit rate : 50 b/s
  104. Count of elements : 1435
  105. Stream size : 39.6 KiB (0%)
  106. Title : Czech
  107. Language : Czech
  108. Default : No
  109. Forced : No

  110. Subtitle #6
  111. ID : 8
  112. Format : UTF-8
  113. Codec ID : S_TEXT/UTF8
  114. Codec ID/Info : UTF-8 Plain Text
  115. Duration : 1 h 44 min
  116. Bit rate : 54 b/s
  117. Count of elements : 1437
  118. Stream size : 41.6 KiB (0%)
  119. Title : Slovenian
  120. Language : Slovenian
  121. Default : No
  122. Forced : No

  123. Subtitle #7
  124. ID : 9
  125. Format : UTF-8
  126. Codec ID : S_TEXT/UTF8
  127. Codec ID/Info : UTF-8 Plain Text
  128. Duration : 1 h 48 min
  129. Bit rate : 48 b/s
  130. Count of elements : 1423
  131. Stream size : 38.8 KiB (0%)
  132. Title : Romanian
  133. Language : Romanian
  134. Default : No
  135. Forced : No

  136. Subtitle #8
  137. ID : 10
  138. Format : UTF-8
  139. Codec ID : S_TEXT/UTF8
  140. Codec ID/Info : UTF-8 Plain Text
  141. Duration : 1 h 49 min
  142. Bit rate : 51 b/s
  143. Count of elements : 1100
  144. Stream size : 41.1 KiB (0%)
  145. Language : Danish
  146. Default : No
  147. Forced : No

  148. Subtitle #9
  149. ID : 11
  150. Format : UTF-8
  151. Codec ID : S_TEXT/UTF8
  152. Codec ID/Info : UTF-8 Plain Text
  153. Duration : 1 h 45 min
  154. Bit rate : 45 b/s
  155. Count of elements : 1007
  156. Stream size : 35.4 KiB (0%)
  157. Language : Dutch
  158. Default : No
  159. Forced : No

  160. Subtitle #10
  161. ID : 12
  162. Format : UTF-8
  163. Codec ID : S_TEXT/UTF8
  164. Codec ID/Info : UTF-8 Plain Text
  165. Duration : 1 h 49 min
  166. Bit rate : 96 b/s
  167. Count of elements : 1457
  168. Stream size : 77.1 KiB (0%)
  169. Language : Persian
  170. Default : No
  171. Forced : No

  172. Subtitle #11
  173. ID : 13
  174. Format : UTF-8
  175. Codec ID : S_TEXT/UTF8
  176. Codec ID/Info : UTF-8 Plain Text
  177. Duration : 1 h 48 min
  178. Bit rate : 76 b/s
  179. Count of elements : 1255
  180. Stream size : 60.8 KiB (0%)
  181. Language : Greek
  182. Default : No
  183. Forced : No

  184. Subtitle #12
  185. ID : 14
  186. Format : UTF-8
  187. Codec ID : S_TEXT/UTF8
  188. Codec ID/Info : UTF-8 Plain Text
  189. Duration : 1 h 46 min
  190. Bit rate : 68 b/s
  191. Count of elements : 1430
  192. Stream size : 53.3 KiB (0%)
  193. Language : Indonesian
  194. Default : No
  195. Forced : No

  196. Subtitle #13
  197. ID : 15
  198. Format : UTF-8
  199. Codec ID : S_TEXT/UTF8
  200. Codec ID/Info : UTF-8 Plain Text
  201. Duration : 1 h 49 min
  202. Bit rate : 46 b/s
  203. Count of elements : 1107
  204. Stream size : 37.5 KiB (0%)
  205. Language : Norwegian
  206. Default : No
  207. Forced : No

  208. Subtitle #14
  209. ID : 16
  210. Format : UTF-8
  211. Codec ID : S_TEXT/UTF8
  212. Codec ID/Info : UTF-8 Plain Text
  213. Duration : 1 h 49 min
  214. Bit rate : 44 b/s
  215. Count of elements : 861
  216. Stream size : 35.9 KiB (0%)
  217. Language : Swedish
  218. Default : No
  219. Forced : No

  220. Subtitle #15
  221. ID : 17
  222. Format : UTF-8
  223. Codec ID : S_TEXT/UTF8
  224. Codec ID/Info : UTF-8 Plain Text
  225. Duration : 1 h 49 min
  226. Bit rate : 134 b/s
  227. Count of elements : 1436
  228. Stream size : 108 KiB (0%)
  229. Language : Thai
  230. Default : No
  231. Forced : No

  232. Subtitle #16
  233. ID : 18
  234. Format : UTF-8
  235. Codec ID : S_TEXT/UTF8
  236. Codec ID/Info : UTF-8 Plain Text
  237. Duration : 1 h 46 min
  238. Bit rate : 78 b/s
  239. Count of elements : 1535
  240. Stream size : 61.4 KiB (0%)
  241. Language : Vietnamese
  242. Default : No
  243. Forced : No

  244. Menu
  245. 00:00:00.000 : :00:00:00.000
  246. 00:06:55.832 : :00:06:55.832
  247. 00:12:58.486 : :00:12:58.486
  248. 00:15:56.539 : :00:15:56.539
  249. 00:17:59.787 : :00:17:59.787
  250. 00:22:01.862 : :00:22:01.862
  251. 00:24:19.875 : :00:24:19.875
  252. 00:29:44.866 : :00:29:44.866
  253. 00:32:48.091 : :00:32:48.091
  254. 00:36:02.494 : :00:36:02.494
  255. 00:38:54.541 : :00:38:54.541
  256. 00:41:06.547 : :00:41:06.547
  257. 00:45:50.122 : :00:45:50.122
  258. 00:48:52.847 : :00:48:52.847
  259. 00:52:01.160 : :00:52:01.160
  260. 00:52:32.066 : :00:52:32.066
  261. 00:55:06.470 : :00:55:06.470
  262. 00:58:28.547 : :00:58:28.547
  263. 01:00:52.440 : :01:00:52.440
  264. 01:06:30.320 : :01:06:30.320
  265. 01:09:09.228 : :01:09:09.228
  266. 01:11:22.195 : :01:11:22.195
  267. 01:13:26.277 : :01:13:26.277
  268. 01:16:58.823 : :01:16:58.823
  269. 01:18:44.261 : :01:18:44.261
  270. 01:21:37.017 : :01:21:37.017
  271. 01:24:10.504 : :01:24:10.504
  272. 01:28:17.501 : :01:28:17.501
  273. 01:34:46.431 : :01:34:46.431
  274. 01:37:22.295 : :01:37:22.295
  275. 01:42:10.708 : :01:42:10.708
  276. 01:46:38.559 : :01:46:38.559
  277. 01:49:02.536 : :01:49:02.536
复制代码

堕落 / 怒火风暴 / 崩溃/城市英雄4k Falling Down (1993) (2160p BluRay x265 HEVC AI 10bit AAC 5.1 电影下载

城市英雄4k Falling Down (1993) (2160p BluRay x265 HEVC AI 10bit AAC 5.1【5.1 GB】
城市英雄4k.txt (88 Bytes)
回复

使用道具 举报

全部回复10

ywf6168 发表于 2020-12-24 10:37:08

ywf6168 沙发

2020-12-24 10:37:08

谢谢分享,辛苦了
回复 支持 反对

使用道具 举报

yangly 发表于 2020-12-24 10:44:29

yangly 板凳

2020-12-24 10:44:29

谢谢分享好电影
回复 支持 反对

使用道具 举报

弗兰克大帝 发表于 2020-12-24 10:50:30

弗兰克大帝 地板

2020-12-24 10:50:30

多谢分享,小弟我超喜欢看道格拉斯父子的电影。
回复 支持 反对

使用道具 举报

ilxb6921 发表于 2020-12-25 09:02:52

ilxb6921 5#

2020-12-25 09:02:52

怎么这么小?
回复 支持 反对

使用道具 举报

hlj1222 发表于 2020-12-25 10:21:19

hlj1222 6#

2020-12-25 10:21:19

谢谢楼主分享如此精彩的电影
回复 支持 反对

使用道具 举报

vcxz55 发表于 2020-12-30 15:54:19

vcxz55 7#

2020-12-30 15:54:19

迈克尔道格拉斯的经典影片之一
回复 支持 反对

使用道具 举报

HAI968226 发表于 2020-12-30 16:29:52

HAI968226 8#

2020-12-30 16:29:52

负能量电影?
回复 支持 反对

使用道具 举报

chris_hw 发表于 2021-1-2 16:50:19

chris_hw 9#

2021-1-2 16:50:19

谢谢分享好电影
回复 支持 反对

使用道具 举报

luopeter123 发表于 2021-1-4 16:25:15

luopeter123 10#

2021-1-4 16:25:15

谢谢分享好电影
回复 支持 反对

使用道具 举报

苏默金武 发表于 2021-1-4 19:28:32

苏默金武 11#

2021-1-4 19:28:32

https://www.hao4k.cn/thread-52903-1-1.html中文字幕已提供下载!!!
回复 支持 反对

使用道具 举报

   发表回复

您需要登录后才可以回帖 登录 | 立即注册

返回列表 本版积分规则

  • 在线客服

  • 返回顶部