微博 微信

Hao4K影音

电影频道
电影封面:
片  名: 野牛4k
电影分类: 动作 犯罪 
国  家: 印度 
年  代: 2019年
分 辨 率: 4K(3840x2160)
电影格式: MKV|REMUX 
画质标准: SDR 
音质编码: Dolby Digital Plus Audio 其他DD 
电影声道: 5.1声道 
帧数/FPS: 24.000 FPS
电影语言: 无字幕 
资源大小: 3.7 GB
导  演: Lijo Jose Pellissery
豆瓣评分:
中文字幕: -
剧情简介:  One day, a buffalo that ran away from a butcher’s runs through the whole village. All men of the village run out to catch the buffalo and make a fuss, while the peaceful village is stained with betrayal, violence, and destruction.
走火入哞(台)/野牛4k Jallikattu (2019) Malayalam (2160p AMZN WEBRip SDR x265 HEVC 10bit DDP 5.1 电影信息
  1. Video
  2. Format : HEVC
  3. Format/Info : High Efficiency Video Coding
  4. Codec ID : V_MPEGH/ISO/HEVC
  5. Duration : 1 h 34 min
  6. Bit rate : 4 501 kb/s
  7. Width : 3 840 pixels
  8. Height : 1 600 pixels
  9. Display aspect ratio : 2.40:1
  10. Frame rate mode : Constant
  11. Frame rate : 24.000 FPS
  12. Color space : YUV
  13. Chroma subsampling : 4:2:0
  14. Bit depth : 10 bits
  15. Bits/(Pixel*Frame) : 0.031
  16. Stream size : 2.96 GiB (80%)
  17. Writing library : x265 3.2+9-971180b100f8:[Windows][GCC 9.2.0][64 bit] 10bit
  18. Encoding settings : cpuid=1111039 / frame-threads=4 / numa-pools=24 / wpp / no-pmode / no-pme / no-psnr / no-ssim / log-level=2 / input-csp=1 / input-res=3840x1600 / interlace=0 / total-frames=135416 / level-idc=50 / high-tier=1 / uhd-bd=0 / ref=3 / no-allow-non-conformance / no-repeat-headers / annexb / no-aud / no-hrd / info / hash=0 / no-temporal-layers / open-gop / min-keyint=24 / keyint=250 / gop-lookahead=0 / bframes=4 / b-adapt=2 / b-pyramid / bframe-bias=0 / rc-lookahead=20 / lookahead-slices=8 / scenecut=40 / radl=0 / no-splice / no-intra-refresh / ctu=64 / min-cu-size=8 / no-rect / no-amp / max-tu-size=32 / tu-inter-depth=1 / tu-intra-depth=1 / limit-tu=0 / rdoq-level=0 / dynamic-rd=0.00 / no-ssim-rd / signhide / no-tskip / nr-intra=0 / nr-inter=0 / no-constrained-intra / strong-intra-smoothing / max-merge=3 / limit-refs=1 / no-limit-modes / me=1 / subme=5 / merange=57 / temporal-mvp / no-frame-dup / no-hme / weightp / no-weightb / no-analyze-src-pics / deblock=0:0 / sao / no-sao-non-deblock / rd=3 / selective-sao=4 / early-skip / rskip / no-fast-intra / no-tskip-fast / no-cu-lossless / b-intra / no-splitrd-skip / rdpenalty=0 / psy-rd=2.00 / psy-rdoq=0.00 / no-rd-refine / no-lossless / cbqpoffs=0 / crqpoffs=0 / rc=abr / bitrate=4500 / qcomp=0.60 / qpstep=4 / stats-write=0 / stats-read=2 / cplxblur=20.0 / qblur=0.5 / ipratio=1.40 / pbratio=1.30 / aq-mode=2 / aq-strength=1.00 / cutree / zone-count=0 / no-strict-cbr / qg-size=32 / no-rc-grain / qpmax=69 / qpmin=0 / no-const-vbv / sar=0 / overscan=0 / videoformat=5 / range=0 / colorprim=1 / transfer=1 / colormatrix=1 / chromaloc=0 / display-window=0 / cll=0,0 / min-luma=0 / max-luma=1023 / log2-max-poc-lsb=8 / vui-timing-info / vui-hrd-info / slices=1 / no-opt-qp-pps / no-opt-ref-list-length-pps / no-multi-pass-opt-rps / scenecut-bias=0.05 / no-opt-cu-delta-qp / no-aq-motion / no-hdr / no-hdr-opt / no-dhdr10-opt / no-idr-recovery-sei / analysis-reuse-level=5 / scale-factor=0 / refine-intra=0 / refine-inter=0 / refine-mv=1 / refine-ctu-distortion=0 / no-limit-sao / ctu-info=0 / no-lowpass-dct / refine-analysis-type=0 / copy-pic=1 / max-ausize-factor=1.0 / no-dynamic-refine / no-single-sei / no-hevc-aq / no-svt / no-field / qp-adaptation-range=1.00
  19. Color range : Limited
  20. Color primaries : BT.709
  21. Transfer characteristics : BT.709
  22. Matrix coefficients : BT.709

  23. Audio #1
  24. Format : E-AC-3
  25. Format/Info : Enhanced AC-3
  26. Commercial name : Dolby Digital Plus
  27. Codec ID : A_EAC3
  28. Duration : 1 h 34 min
  29. Bit rate mode : Constant
  30. Bit rate : 640 kb/s
  31. Channel(s) : 6 channels
  32. Channel layout : L R C LFE Ls Rs
  33. Sampling rate : 48.0 kHz
  34. Frame rate : 31.250 FPS (1536 SPF)
  35. Compression mode : Lossy
  36. Stream size : 430 MiB (11%)
  37. Language : Malayalam

  38. Audio #2
  39. Format : AC-3
  40. Format/Info : Audio Coding 3
  41. Commercial name : Dolby Digital
  42. Codec ID : A_AC3
  43. Duration : 1 h 34 min
  44. Bit rate mode : Constant
  45. Bit rate : 448 kb/s
  46. Channel(s) : 6 channels
  47. Channel layout : L R C LFE Ls Rs
  48. Sampling rate : 48.0 kHz
  49. Frame rate : 31.250 FPS (1536 SPF)
  50. Compression mode : Lossy
  51. Stream size : 301 MiB (8%)
  52. Language : Malayalam

  53. Subtitle #1
  54. Format : UTF-8
  55. Codec ID : S_TEXT/UTF8
  56. Codec ID/Info : UTF-8 Plain Text
  57. Duration : 1 h 21 min
  58. Bit rate : 37 b/s
  59. Count of elements : 736
  60. Stream size : 22.1 KiB (0%)
  61. Title : English [SDH]
  62. Language : English

  63. Subtitle #2
  64. Format : UTF-8
  65. Codec ID : S_TEXT/UTF8
  66. Codec ID/Info : UTF-8 Plain Text
  67. Duration : 1 h 21 min
  68. Bit rate : 88 b/s
  69. Count of elements : 740
  70. Stream size : 52.7 KiB (0%)
  71. Title : Hindi [Full]
  72. Language : Hindi

  73. Subtitle #3
  74. Format : UTF-8
  75. Codec ID : S_TEXT/UTF8
  76. Codec ID/Info : UTF-8 Plain Text
  77. Duration : 1 h 21 min
  78. Bit rate : 108 b/s
  79. Count of elements : 728
  80. Stream size : 64.3 KiB (0%)
  81. Title : Tamil [Full]
  82. Language : Tamil

  83. Subtitle #4
  84. Format : UTF-8
  85. Codec ID : S_TEXT/UTF8
  86. Codec ID/Info : UTF-8 Plain Text
  87. Duration : 1 h 21 min
  88. Bit rate : 101 b/s
  89. Count of elements : 722
  90. Stream size : 60.5 KiB (0%)
  91. Title : Telugu [Full]
  92. Language : Telugu
复制代码

走火入哞(台)/野牛4k Jallikattu (2019) Malayalam (2160p AMZN WEBRip SDR x265 HEVC 10bit DDP 5.1 电影下载

野牛4k Jallikattu 2019 Malayalam (2160p AMZN WEBRip SDR x265 HEVC 10bit DDP 5.1【3.7 GB】
野牛4k.txt (84 Bytes)
回复

使用道具 举报

全部回复13

zocke 发表于 2020-12-24 11:56:57

zocke 板凳

2020-12-24 11:56:57

是个啥样的电影呢
回复 支持 反对

使用道具 举报

lywzj238 发表于 2020-12-25 19:37:32

lywzj238 5#

2020-12-25 19:37:32

谢谢分享好电影
回复 支持 反对

使用道具 举报

tad 发表于 2020-12-26 15:50:33

tad 6#

2020-12-26 15:50:33

不懂印度语
回复 支持 反对

使用道具 举报

墨龙9527 发表于 2020-12-26 16:57:11

墨龙9527 7#

2020-12-26 16:57:11

谢谢    好电影
回复 支持 反对

使用道具 举报

lywzj238 发表于 2020-12-28 10:21:30

lywzj238 8#

2020-12-28 10:21:30

谢谢分享好电影
回复 支持 反对

使用道具 举报

sungm1212 发表于 2020-12-30 09:37:31

sungm1212 9#

2020-12-30 09:37:31

谢谢分享好电影
回复 支持 反对

使用道具 举报

xuy306 发表于 2020-12-31 12:39:05

xuy306 10#

2020-12-31 12:39:05

没有印度文化背景,完全看不明白。
回复 支持 反对

使用道具 举报

xxl19901123 发表于 2021-1-1 20:22:09

xxl19901123 11#

2021-1-1 20:22:09


谢谢分享好电影
回复 支持 反对

使用道具 举报

cxdz680 发表于 2021-1-4 21:14:18

cxdz680 13#

2021-1-4 21:14:18


谢谢分享好电影
回复 支持 反对

使用道具 举报

sycwang 发表于 2021-1-5 23:05:36

sycwang 14#

2021-1-5 23:05:36

下一部来看看看,了解一下印度电影。
回复 支持 反对

使用道具 举报

   发表回复

您需要登录后才可以回帖 登录 | 立即注册

返回列表 本版积分规则

  • 在线客服

  • 返回顶部