微博 微信

Hao4K影音

电影频道
电影封面:
片  名: 疯狂原始人2 4k
电影分类: 冒险 喜剧 动画 
国  家: 美国 
年  代: 2020年
分 辨 率: 4K(3840x2160)
电影格式: MKV|REMUX 
画质标准: HDR 
音质编码: Dolby Digital Audio 
电影声道: 5.1声道 
帧数/FPS: 23.976 FPS
电影语言: 英文原版 
资源大小: 2.2 GB
导  演: 乔尔·克劳福德
豆瓣评分: 8.1 分
中文字幕: /thread-52547-1-1.html
剧情简介: 经历了逃离洞穴、挺过末日危机之后的原始人咕噜家族,咕噜一家决定寻找新家园。中途盖(瑞恩·雷诺兹 Ryan Reynolds 配音)已成了咕噜一家中的一员,但让瓜哥(尼古拉斯·凯奇 Nicolas Cage 配音)头疼的是,盖跟女儿小伊(艾玛·斯通 Emma Stone 配音)每天你侬我侬,还妄想组成只属于两人的小家庭。就在咕噜一家人饥肠辘辘之际,他们发现了一片高墙内隐藏着食物丰饶的沃土,原来开辟这片世外桃源的文明人夫妇霍普和菲尔是已经去世的盖的父母的朋友。在最初的热情款待后,一心想要撮合盖和女儿晓晓的霍普和菲尔,发现咕噜一家成了绊脚石,为了把盖抢过来,他们用上了攻心计。两家人闹得不可开交,盖和小伊也产生了裂痕,却浑然不知危险正慢慢靠近……
古鲁家族2:霸器新時代(港) / 古鲁家族:新石代(台) / 疯狂原始人2:新纪元/疯狂原始人2 4k The Croods A New Age 2020 2160p HDR 5.1 x265 10bit 电影信息
  1. Video
  2. ID : 1
  3. Format : HEVC
  4. Format/Info : High Efficiency Video Coding
  5. Format profile : Main [email protected]@High
  6. Codec ID : V_MPEGH/ISO/HEVC
  7. Duration : 1 h 35 min
  8. Bit rate : 2 973 kb/s
  9. Width : 3 840 pixels
  10. Height : 1 632 pixels
  11. Display aspect ratio : 2.35:1
  12. Frame rate mode : Constant
  13. Frame rate : 23.976 (24000/1001) FPS
  14. Color space : YUV
  15. Chroma subsampling : 4:2:0
  16. Bit depth : 10 bits
  17. Bits/(Pixel*Frame) : 0.020
  18. Stream size : 1.98 GiB (88%)
  19. Writing library : x265 3.2.1+1-b5c86a64bbbe:[Windows][GCC 9.2.0][64 bit] 10bit
  20. Color range : Full
  21. Color primaries : BT.2020
  22. Transfer characteristics : PQ
  23. Matrix coefficients : BT.2020 non-constant

  24. Audio
  25. ID : 2
  26. Format : AC-3
  27. Format/Info : Audio Coding 3
  28. Commercial name : Dolby Digital
  29. Codec ID : A_AC3
  30. Duration : 1 h 35 min
  31. Bit rate mode : Constant
  32. Bit rate : 320 kb/s
  33. Channel(s) : 6 channels
  34. Channel layout : L R C LFE Ls Rs
  35. Sampling rate : 48.0 kHz
  36. Frame rate : 31.250 FPS (1536 SPF)
  37. Compression mode : Lossy
  38. Delay relative to video : -5 ms
  39. Stream size : 218 MiB (10%)
  40. Title : English

  41. Text
  42. Language : English
  43. Default : No
  44. Forced : No
复制代码

古鲁家族2:霸器新時代(港) / 古鲁家族:新石代(台) / 疯狂原始人2:新纪元/疯狂原始人2 4k The Croods A New Age 2020 2160p HDR 5.1 x265 10bit 电影下载

疯狂原始人2 4k The Croods A New Age 2020 2160p HDR 5.1 x265 10bit【2.2 GB】
疯狂原始人2.txt (90 Bytes)
回复

使用道具 举报

苏默金武 发表于 2020-12-25 11:29:03

苏默金武 推荐

2020-12-25 11:29:03

https://www.hao4k.cn/thread-52547-1-1.html双语完美字幕已提供下载!!!
回复 支持 3 反对 0

使用道具 举报

luqiaoweitao 发表于 2020-12-29 18:14:04

luqiaoweitao 推荐

2020-12-29 18:14:04

苏默金武 发表于 2020-12-25 11:29
https://www.hao4k.cn/thread-52547-1-1.html双语完美字幕已提供下载!!!

正需要国语配音呢
回复 支持 反对

使用道具 举报

jew19850123 发表于 2020-12-24 15:59:02

jew19850123 地板

2020-12-24 15:59:02

好东西  感谢分享
回复 支持 反对

使用道具 举报

starcloud 发表于 2020-12-24 22:40:06

starcloud 5#

2020-12-24 22:40:06

2.2G 这个大小不太对吧?1080p都4g多了
回复 支持 反对

使用道具 举报

zhan198239 发表于 2020-12-25 09:42:41

zhan198239 6#

2020-12-25 09:42:41


好东西,不过2.2G太小了,先顶一下
回复 支持 反对

使用道具 举报

spsyj 发表于 2020-12-25 10:33:55

spsyj 8#

2020-12-25 10:33:55

先顶下。谢谢楼主。
回复 支持 反对

使用道具 举报

baoge246 发表于 2020-12-25 11:41:10

baoge246 9#

2020-12-25 11:41:10

坐等原盘资源,谢谢分享
回复 支持 反对

使用道具 举报

danmu 发表于 2020-12-25 11:48:39

danmu 10#

2020-12-25 11:48:39

坐等原盘资源,谢谢分享
回复 支持 反对

使用道具 举报

lds931 发表于 2020-12-25 12:30:58

lds931 11#

2020-12-25 12:30:58

才2.2G,是4k的吗?不过,先支持下吧!
回复 支持 反对

使用道具 举报

月光麦田 发表于 2020-12-25 13:17:09

月光麦田 12#

2020-12-25 13:17:09

对啊,文件这么小吗
回复 支持 反对

使用道具 举报

ann2008 发表于 2020-12-25 13:25:21

ann2008 13#

2020-12-25 13:25:21

4k有这么小吗?
回复 支持 反对

使用道具 举报

永乐大帝 发表于 2020-12-25 13:55:16

永乐大帝 14#

2020-12-25 13:55:16

坐等原盘资源,谢谢分享
回复 支持 反对

使用道具 举报

peterliuwei 发表于 2020-12-25 14:07:57

peterliuwei 15#

2020-12-25 14:07:57

这个应该不是4K吧,等高清版本!
回复 支持 反对

使用道具 举报

programmer_lei 发表于 2020-12-25 20:35:32

programmer_lei 18#

2020-12-25 20:35:32

试过了,可以放心下载,分辨率3840*1632,稳定23.976帧
回复 支持 反对

使用道具 举报

csadss 发表于 2020-12-25 20:43:25

csadss 19#

2020-12-25 20:43:25

先谢谢了~正好让小朋友观赏
回复 支持 反对

使用道具 举报

   发表回复

您需要登录后才可以回帖 登录 | 立即注册

返回列表 本版积分规则

  • 在线客服

  • 返回顶部