微博 微信

Hao4K影音

[技术教程] 两步修复这次的神奇女侠1984杜比视界的色彩问题。

2020-12-28 14:18:59 36263 32 |只看大图 回帖奖励 |倒序浏览 |阅读模式

badrobot 楼主

2020-12-27 12:12:58

如果你今天下载了Wonder Woman 1984的杜比视界版本,你有可能会发现特么的杜比视界的信息无法识别,导致播放的颜色异常。2 J0 X' d. f; Z
- P5 d& f  D' \' }3 f6 H3 j
因为他弄的文件头信息有问题;* s9 k* q( @% G7 J. W' R$ I! R. S
) y+ D0 Z" |# I0 I
Video
) |. T+ T$ k) C: P1 |ID                                       : 1 . O% e! [; ^0 F; l
Format                                   : HEVC
2 ?2 Z# _' S. Q) }( i  yFormat/Info                              : High Efficiency Video Coding
( `2 g2 F' i& i' z0 W) ?, uFormat profile                           : Main 10@L5@High
7 ?/ u$ ?1 C2 t; ~8 W8 s  AHDR format                               : Dolby Vision, Version 0
  N# O% H2 C- `" @Codec ID                                 : dvhe 8 a, H  G0 M# t
Codec ID/Info                            : High Efficiency Video Coding with Dolby Vision : s" i# p2 w% W- F' P& l/ T
Duration                                 : 2 h 31 min
3 b7 `5 e3 t# j( V) t# MBit rate                                 : 18.1 Mb/s & E) a: _: z$ Y
Maximum bit rate                         : 47.0 Mb/s
7 X& b: G1 {( C2 P5 V0 C. Y) YWidth                                    : 3 840 pixels
% o( d/ \! f$ l; tHeight                                   : 2 160 pixels % r3 x+ I. \% o
Display aspect ratio                     : 16:9 6 X# z4 A/ |( m
Frame rate mode                          : Constant
9 o' C/ ]5 Y. WFrame rate                               : 23.976 (24000/1001) FPS ) Y8 }- ?) ?, w% G+ l& F
Color space                              : YUV , E+ ^- E. [) u
Chroma subsampling                       : 4:2:0 # T( y1 w0 r) I8 u$ U% o& i
Bit depth                                : 10 bits
. {/ s9 g& Y1 L, R3 R; tBits/(Pixel*Frame)                       : 0.091
* x7 H  u& `; H1 i5 S# BStream size                              : 19.1 GiB (96%) ( s3 g% h5 ~4 p5 E
Writing library                          : x265 3.4hy:[Linux][GCC 7.5.0][64 bit] 10bit
: v0 M2 |* s6 `: a7 O( D9 n
HDR format这里,信息明显不正确。无法显示出具体的profile信息,正确的应该是profile 05.06.
2 C+ E" S: E8 D, @! H4 w  ?$ l' g( _
我们使用两个开源软件来搞定,一个是大名鼎鼎的ffmpeg,另一个是DOLBY实验室开源的mp4muxer,可以重新把单独的视频音频流mux成一个mp4,并且重写文件头
  \4 P2 u$ U) N8 Y$ [工具的链接如下:
! j. p6 }  d" Rffmpeg: https://www.gyan.dev/ffmpeg/builds/ffmpeg-git-full.7z
% h' y/ w  |  z1 ]  F2 x9 k
( w5 B, O  f" s0 ?0 K/ w" B& gmp4muxer: https://github.com/DolbyLaboratories/dlb_mp4base/tree/master/bin
  K% q/ {' c3 w* y$ V; R! z6 K6 {& V% n# ^: v5 P
下载完之后就可以开干了,首先用ffmpeg拆分:; S& X! R3 @1 }7 k9 j9 _
ffmpeg.exe -i Wonder.Woman.1984.2020.2160p.HMAX.WEB-DL.DDP5.1.Atmos.DV.x265-MZABI.mp4 -map 0:0 -c copy video.h265 -map 0:1 -c copy audio.ac3
  H# e( `7 w  R
拆完之后的文件,video.h265是视频流,audio.ac3是音频流,接着mux一把,我们知道这是一个流媒体流出的版本,是profile 5的。
! u8 r* _1 S' R: Q* `# T/ E, ?
mp4muxer.exe -i video.h265 -i audio.ac3 --media-lang eng -o ww1984.mp4 --dv-profile 5 --mpeg4-comp-brand mp42,dby1 --overwrite
( v' O& z5 @7 V- \$ ~/ l. {! Y
ww1984.mp4就是重新生成的mp4了* l: @: F" O! K" I$ ~1 P* K

& F& o1 _+ c+ l; B; ]再看下media info:& T. b2 v  l& `  B0 D. N+ h
Video
$ Q6 H8 K; l: V6 {( A0 g9 qID                                       : 1 ! |  A; P* m' B0 X, W. z, Z
Format                                   : HEVC
0 W; r: Q/ `8 q4 z7 p2 {" [, \: UFormat/Info                              : High Efficiency Video Coding 4 |8 m$ q: ~2 A
Format profile                           : Main 10@L5@High ' R( D. b* T  n2 e3 [- Y% l
HDR format                               : Dolby Vision, Version 1.0, dvhe.05.06, BL+RPU
# f8 A" c2 D/ L& v4 {Codec ID                                 : dvhe * }5 N" F" q' u$ t& b8 n
Codec ID/Info                            : High Efficiency Video Coding with Dolby Vision   v8 V% D; }7 j
Duration                                 : 2 h 31 min
" g( m+ x9 L% d, Y) @% @" V9 h5 ?  v5 ]Bit rate                                 : 18.1 Mb/s
6 R7 `7 ^* P* Y/ DWidth                                    : 3 840 pixels
& m8 o9 T! c( D, F! Z! kHeight                                   : 2 160 pixels   t- ]" V1 G* g7 o0 O; O
Display aspect ratio                     : 16:9
) E) T8 b% Q3 h  S7 qFrame rate mode                          : Constant 8 W6 V8 t- V1 A/ b
Frame rate                               : 23.976 (24000/1001) FPS
, m1 l+ p. _0 U1 sColor space                              : YUV
- k( m% f+ H, \( T- qChroma subsampling                       : 4:2:0 ; V+ s6 Y$ v/ z" S2 F
Bit depth                                : 10 bits
$ T( F% V% u- z/ T! ]Bits/(Pixel*Frame)                       : 0.091 / Q- y/ f  l1 ^  A  Y' Q
Stream size                              : 19.1 GiB (96%)
5 c0 B: n( _" f+ Q4 A& {6 AWriting library                          : x265 3.4hy:[Linux][GCC 7.5.0][64 bit] 10bit
% @% b' @! d3 \: I
收工了。Dolby Vision, Version 1.0, dvhe.05.06, BL+RPU,shield tv/fire tv/apple tv甚至iphone都可以愉快的识别了。* a2 y# z9 I$ x0 J4 }2 L2 u* w
( W( T& x: g; F$ A5 \6 P' W
下图是iphone上的infuse识别的信息,已经有DV标记了,播放色彩也是正常的,而修改之前,跟你一样的问题,色彩异常。
% _$ [. N- ]& ?/ w# s! ~ mmexport1609041303271.png
: ]1 p6 o6 R! v' |- R! ~6 f5 U: o- A' {2 f
如果你觉得有用,回复一下吧  Z$ l. Q% |* c7 b7 J& F$ E% X

评分

参与人数 1K币 +50 收起 理由
hao4k + 50 谢谢分享!

查看全部评分

回复

使用道具 举报

七彩黄山 发表于 2020-12-27 22:58:33

七彩黄山 推荐

2020-12-27 22:58:33

ganglianmi 发表于 2020-12-27 22:06. K0 B, Y8 y+ Q3 M. z9 x0 K! E
芝杜z9x能正常识别播放,魅视8702不能

3 Z3 y6 [% w7 j恐怕是凡是8581芯片的机子,播放这个片子可能都不行。这恐怕是为Z9X量身定做的。不过人们选择能播放和支持杜比视界的片子,都是以能播放双层逗比世界为原则。8702也只有在这部片子的播放上色彩不正确,其实并不是8702的问题。以后见到这样的片子不下载也就罢了,下载就去下这些带杜比视界的圆盘。更不会因为这个片子特别还去入一部Z9X。搞笑的吧。
回复 支持 反对

使用道具 举报

hk1560777 发表于 2020-12-27 23:15:35

hk1560777 推荐

2020-12-27 23:15:35

七彩黄山 发表于 2020-12-27 22:58
/ P7 F; Z7 U/ q, [* ^4 N0 u恐怕是凡是8581芯片的机子,播放这个片子可能都不行。这恐怕是为Z9X量身定做的。不过人们选择能播放和支 ...
3 f( v( A1 s* A
正解,杰科5300越狱播放色彩也不正常。后面下了另外一个版本看后基本和我预想的一样,让一个女性导演来执导这部本应该是的场面火爆的动作大片本身就是个错,第一部也没有觉得哪里好,女主和男主的演技欠火候。所以看完也就那个样,属于看后即删的类型,不值得收藏原盘
回复 支持 反对

使用道具 举报

七彩黄山 发表于 2020-12-27 13:44:44

七彩黄山 地板

2020-12-27 13:44:44

说来说去发的这个DV的视频版实际上是不合格的。如果每一个发视频都是杜比世界的,都要每个人自己还要去加工,另外去改,改动那个这就晕死。
回复 支持 反对

使用道具 举报

okboy2019 发表于 2020-12-27 13:55:47

okboy2019 5#

2020-12-27 13:55:47

论坛里藏龙卧虎,学习了
回复 支持 反对

使用道具 举报

badrobot 发表于 2020-12-27 15:19:05 Hao4K手机版

badrobot 6#

2020-12-27 15:19:05

七彩黄山 发表于 2020-12-27 13:44
7 ?& q! N5 R! H* ]. i# |% `; v+ D说来说去发的这个DV的视频版实际上是不合格的。如果每一个发视频都是杜比世界的,都要每个人自己还要去加工 ...

; d9 P# P  Q$ o1 q: M也可能是hbo max留的坑,让你把片子弄出来了,播放颜色也不对。
回复 支持 反对

使用道具 举报

qazxderfvbhy 发表于 2020-12-27 15:43:28

qazxderfvbhy 7#

2020-12-27 15:43:28

看起来好复杂。。。
回复 支持 反对

使用道具 举报

despot 发表于 2020-12-27 16:02:49

despot 8#

2020-12-27 16:02:49

卧槽,厉害啊。
回复 支持 反对

使用道具 举报

ZombieNight 发表于 2020-12-27 16:04:47

ZombieNight 9#

2020-12-27 16:04:47

这个真是学习了
回复 支持 反对

使用道具 举报

soyunwu 发表于 2020-12-27 19:48:54

soyunwu 10#

2020-12-27 19:48:54

虽然看不太懂还是感觉很厉害的样子
回复 支持 反对

使用道具 举报

ganglianmi 发表于 2020-12-27 22:06:49 Hao4K手机版

ganglianmi 11#

2020-12-27 22:06:49

芝杜z9x能正常识别播放,魅视8702不能
回复 支持 反对

使用道具 举报

jiangbaihang 发表于 2020-12-27 22:48:06

jiangbaihang 12#

2020-12-27 22:48:06

能搞的简单点不?
回复 支持 反对

使用道具 举报

腾冲人 发表于 2020-12-28 01:22:40

腾冲人 13#

2020-12-28 01:22:40

emmm……看着有人用iphone看4K电影,我陷入了沉思……
回复 支持 反对

使用道具 举报

wasgwasg 发表于 2020-12-28 07:29:54

wasgwasg 14#

2020-12-28 07:29:54

IMG_2841.JPG 3 }- E# y' n# L
c9 硬解正常~
回复 支持 反对

使用道具 举报

badrobot 发表于 2020-12-28 08:59:18 Hao4K手机版

badrobot 15#

2020-12-28 08:59:18

腾冲人 发表于 2020-12-28 01:22
1 @* B' V6 U. y; S) Wemmm……看着有人用iphone看4K电影,我陷入了沉思……
/ ?2 u1 L& P4 F" M  ~5 q
我在带娃上辅导班的时候用手机写了这个帖子,手里只有一个iphone,用infuse截个图告诉大家修复的效果。 这也只是验证的时候剪的一个三分钟片段,乱喷前看清楚好嘛。
6 \; _% A# c; b. n0 Z2 ?# h& k写个技术贴还能触发到你的优越感了。
回复 支持 反对

使用道具 举报

zjwzzzs 发表于 2020-12-28 09:16:10

zjwzzzs 16#

2020-12-28 09:16:10

学习了!谢谢!
回复 支持 反对

使用道具 举报

腾冲人 发表于 2020-12-28 11:00:52

腾冲人 17#

2020-12-28 11:00:52

badrobot 发表于 2020-12-28 08:59
1 i3 i# B& s+ D" O( _: O- t我在带娃上辅导班的时候用手机写了这个帖子,手里只有一个iphone,用infuse截个图告诉大家修复的效果。  ...

" I+ E+ l, O7 F5 ^, B" ~哥们,你生活压力很大吗?为什么我就这样调侃一句,引来你这样的满腔怒火?感觉戾气很足啊,我没啥优越感,只是在调侃手机屏幕小,你的技术贴很不错,但没必要这样敏感。
回复 支持 反对

使用道具 举报

badrobot 发表于 2020-12-28 14:18:59 Hao4K手机版

badrobot 18#

2020-12-28 14:18:59

腾冲人 发表于 2020-12-28 11:006 @4 P0 N9 p* @7 l: |7 c
哥们,你生活压力很大吗?为什么我就这样调侃一句,引来你这样的满腔怒火?感觉戾气很足啊,我没啥优越感 ...
: s& R$ x# q, ~' ~* m7 X0 @
抱歉,言语冲动了。
回复 支持 反对

使用道具 举报

   发表回复

您需要登录后才可以回帖 登录 | 立即注册

返回列表 本版积分规则

:
新手上路
:
未填写

主题

帖子

积分33

图文推荐

  • 《世界新闻》描述一个野性的女孩如何回归正

    此影片剧情曲折婉转。描述了这位读报的人的正直与

  • 激光电视更护眼是一个谎言

    你怎么看?我觉得100寸以下激光电视都是智商税

  • 科普:4K播放机支持的8Bit、10Bit、12Bit影

    科普:4K播放机支持的8Bit、10Bit、12Bit影像输

  • 关于4k屏笔记本播放4k视频不流畅的问题

    如题,我用的是potplayer播放器,笔记本是技嘉aer

  • 激光电视与液晶电视画面对比

    最近半年,网上激光电视广告越来越多,但是实体店

  • 在线客服

  • 返回顶部