微博 微信

Hao4K影音

[美剧] 蔚蓝海岸4k Riviera.S03.2160p.美剧下载

2020-12-30 16:04:58 16203 3 |只看大图 回帖奖励 |倒序浏览 |阅读模式

大红色 楼主

2020-12-28 10:25:20

电视剧频道
电视剧封面:
电视剧名: 蔚蓝海岸4k
年  代: 2017  
国  家: 英国
类  别: 惊悚 剧情 
语  言: 英语
字  幕: -
上映日期: 2017-06-15
文件格式: mkv    
视频效果: 4K(3840x2160)    
资源大小: 41.69 GB
片  长: 45 分钟
导  演: 汉斯·贺伯斯 / 菲利普·卡德尔巴赫 / 艾德里安·莱斯特 / 达蒙·托马斯 / 保罗·沃克
剧情简介:  年轻的乔治安娜(朱丽娅·斯蒂尔斯 Julia Stiles 饰)嫁给了意大利富豪克里奥斯(安东尼·拉帕格利亚 Anthony LaPaglia 饰),这段婚姻刚刚持续一年,克里奥斯便在一场意外中丧生。悲痛之中,乔治安娜渐渐开始怀疑丈夫的死是一宗蓄意谋杀,坚强的她决定开始调查事件的真相。
  很快,乔治安娜便发现了克里奥斯隐藏的秘密,他所拥有的巨大财富,是靠着犯罪得来的。不仅如此,想要保住这份财产,乔治安娜需要面对的是正在虎视眈眈的对手们,稍不留神就可能被他们杀的片甲不留。在克里奥斯的前妻的帮助下,乔治安娜迅速的学习着在“圈子里”生存下去的那些必备技能,她要不惜一切代价守住属于她和丈夫的东西。
蔚蓝海岸4k Riviera.S03.2160p.WEBRip.DD2.0.x265.美剧信息
  1. Video
  2. ID : 1
  3. Format : HEVC
  4. Format/Info : High Efficiency Video Coding
  5. Format profile : Main@L5.1@High
  6. Codec ID : V_MPEGH/ISO/HEVC
  7. Duration : 45 min 30 s
  8. Bit rate : 18.8 Mb/s
  9. Width : 3 840 pixels
  10. Height : 1 920 pixels
  11. Display aspect ratio : 2.000
  12. Frame rate mode : Constant
  13. Frame rate : 25.000 FPS
  14. Color space : YUV
  15. Chroma subsampling : 4:2:0
  16. Bit depth : 8 bits
  17. Bits/(Pixel*Frame) : 0.102
  18. Stream size : 5.99 GiB (98%)
  19. Writing library : x265 3.4+26-g83e2d7fb0:[Windows][GCC 9.3.0][64 bit] 8bit+10bit+12bit
  20. Encoding settings : cpuid=1111039 / frame-threads=4 / numa-pools=28 / wpp / no-pmode / no-pme / no-psnr / no-ssim / log-level=2 / input-csp=1 / input-res=3840x1920 / interlace=0 / total-frames=0 / level-idc=51 / high-tier=1 / uhd-bd=0 / ref=4 / no-allow-non-conformance / no-repeat-headers / annexb / aud / hrd / info / hash=0 / no-temporal-layers / no-open-gop / min-keyint=25 / keyint=250 / gop-lookahead=0 / bframes=4 / b-adapt=2 / b-pyramid / bframe-bias=0 / rc-lookahead=20 / lookahead-slices=4 / scenecut=40 / hist-scenecut=0 / radl=0 / no-splice / no-intra-refresh / ctu=64 / min-cu-size=8 / rect / no-amp / max-tu-size=32 / tu-inter-depth=1 / tu-intra-depth=1 / limit-tu=0 / rdoq-level=0 / dynamic-rd=0.00 / no-ssim-rd / signhide / no-tskip / nr-intra=0 / nr-inter=0 / no-constrained-intra / no-strong-intra-smoothing / max-merge=3 / limit-refs=1 / no-limit-modes / me=1 / subme=2 / merange=57 / temporal-mvp / no-frame-dup / no-hme / weightp / no-weightb / no-analyze-src-pics / deblock=-3:-3 / no-sao / no-sao-non-deblock / rd=3 / selective-sao=0 / early-skip / rskip / no-fast-intra / no-tskip-fast / no-cu-lossless / b-intra / no-splitrd-skip / rdpenalty=0 / psy-rd=2.00 / psy-rdoq=0.00 / no-rd-refine / no-lossless / cbqpoffs=0 / crqpoffs=0 / rc=crf / crf=19.0 / qcomp=0.60 / qpstep=4 / stats-write=0 / stats-read=0 / vbv-maxrate=160000 / vbv-bufsize=160000 / vbv-init=0.9 / min-vbv-fullness=50.0 / max-vbv-fullness=80.0 / crf-max=0.0 / crf-min=0.0 / ipratio=1.40 / pbratio=1.30 / aq-mode=2 / aq-strength=1.00 / no-cutree / zone-count=0 / no-strict-cbr / qg-size=32 / no-rc-grain / qpmax=69 / qpmin=0 / no-const-vbv / sar=1 / overscan=0 / videoformat=5 / range=0 / colorprim=1 / transfer=1 / colormatrix=1 / chromaloc=0 / display-window=0 / cll=0,0 / min-luma=0 / max-luma=255 / log2-max-poc-lsb=8 / vui-timing-info / vui-hrd-info / slices=1 / no-opt-qp-pps / no-opt-ref-list-length-pps / no-multi-pass-opt-rps / scenecut-bias=0.05 / hist-threshold=0.03 / no-opt-cu-delta-qp / no-aq-motion / no-hdr10 / no-hdr10-opt / no-dhdr10-opt / no-idr-recovery-sei / analysis-reuse-level=0 / analysis-save-reuse-level=0 / analysis-load-reuse-level=0 / scale-factor=0 / refine-intra=0 / refine-inter=0 / refine-mv=1 / refine-ctu-distortion=0 / no-limit-sao / ctu-info=0 / no-lowpass-dct / refine-analysis-type=0 / copy-pic=1 / max-ausize-factor=1.0 / no-dynamic-refine / no-single-sei / no-hevc-aq / no-svt / no-field / qp-adaptation-range=1.00 / no-scenecut-aware-qpconformance-window-offsets / right=0 / bottom=0 / decoder-max-rate=0 / no-vbv-live-multi-pass
  21. Language : English
  22. Default : Yes
  23. Forced : No
  24. Color range : Limited
  25. Color primaries : BT.709
  26. Transfer characteristics : BT.709
  27. Matrix coefficients : BT.709

  28. Audio
  29. ID : 2
  30. Format : AC-3
  31. Format/Info : Audio Coding 3
  32. Commercial name : Dolby Digital
  33. Codec ID : A_AC3
  34. Duration : 45 min 30 s
  35. Bit rate mode : Constant
  36. Bit rate : 384 kb/s
  37. Channel(s) : 2 channels
  38. Channel layout : L R
  39. Sampling rate : 48.0 kHz
  40. Frame rate : 31.250 FPS (1536 SPF)
  41. Compression mode : Lossy
  42. Stream size : 125 MiB (2%)
  43. Title : ENG AC3 2.0 384kbit
  44. Language : English
  45. Service kind : Complete Main
  46. Default : No
  47. Forced : No
复制代码

蔚蓝海岸4k Riviera.S03.2160p.WEBRip.DD2.0.x265.美剧下载

蔚蓝海岸4k Riviera.S03.2160p.WEBRip.DD2.0.x265【41.69 GB】
[Hao4k]蔚蓝海岸4k Riviera.S03.2160p.WEBRip.DD2.0.x265-iNSPiRiT[rartv].torrent (105.31 KB)
回复

使用道具 举报

全部回复3

xv6950 发表于 2020-12-29 11:15:50

xv6950 板凳

2020-12-29 11:15:50

可惜找不到中文字幕
回复 支持 反对

使用道具 举报

xndsh 发表于 2020-12-30 16:04:58

xndsh 地板

2020-12-30 16:04:58

追这部连续剧很久了,可惜到处都没有找到中文字幕,可惜了!
回复 支持 反对

使用道具 举报

发表回复

您需要登录后才可以回帖 登录 | 立即注册

返回列表 本版积分规则

:
白银玩家
:
未填写

主题

帖子

积分931

图文推荐

  • 安桥5100功放魅视9702播放机全景声与图像问

    1.安桥5100功放 播放机魅视9702 投影是奥图码886

  • 一篇文章带你了解投影机0.47英寸芯片与0.66

    相信大家再挑选投影机时都会看投影机的芯片,目前

  • 杰科G5800详细内部构造拆机图[图多杀猫]

    今天抽空吧5800拆了,图放上来了,大家凑合看看吧

  • 关于收藏《4KUHD蓝光原盘》还是《4KUHD蓝光

    《4K UHD 蓝光原盘》 优点:有导航菜单和电影幕后

  • 实力曝光不为人知的hifi影音行业:从厂商、

    实力曝光不为人知的hifi影音行业:从厂商、媒体至

  • 在线客服

  • 返回顶部