微博 微信

Hao4K影音

[美剧] 踮起脚尖4k On.Pointe.S01.2160p.美剧下载

4 天前 18115 5 |只看大图 回帖奖励 |倒序浏览 |阅读模式

大红色 楼主

2020-12-28 10:41:23

电视剧频道
电视剧封面:
电视剧名: 踮起脚尖4k
年  代: 2020  
国  家: 美国
类  别: 纪录片 
语  言: 英语
字  幕: 英文原版
上映日期: 2020-12-18
文件格式: mkv    
视频效果: 4K(3840x2160)    
资源大小: 49 GB
片  长: 49 分钟
导  演: Larissa Bills
剧情简介: Disney+纪录剧《踮起脚尖》(On Pointe)发布预告,芭蕾的魅力和创新,年轻人们的汗水与竞争。
  聚焦纽约的舞蹈名校美国芭蕾舞学院,来自各地、怀着热爱的舞者们——从小孩子到青少年,在这里筹备着《胡桃夹子》的表演,展望未来的舞台生涯。Larissa Bills执导,12月18日上线。
踮起脚尖4k On.Pointe.S01.2160p.DSNP.WEBRip.x265.10bit.HDR.DDP5.1.美剧信息
  1. Video
  2. ID : 1
  3. Format : HEVC
  4. Format/Info : High Efficiency Video Coding
  5. Format profile : Main 10@L5@High
  6. HDR format : SMPTE ST 2086, HDR10 compatible
  7. Codec ID : V_MPEGH/ISO/HEVC
  8. Duration : 49 min 55 s
  9. Bit rate : 16.0 Mb/s
  10. Width : 3 840 pixels
  11. Height : 2 160 pixels
  12. Display aspect ratio : 16:9
  13. Frame rate mode : Constant
  14. Frame rate : 23.976 (24000/1001) FPS
  15. Color space : YUV
  16. Chroma subsampling : 4:2:0
  17. Bit depth : 10 bits
  18. Bits/(Pixel*Frame) : 0.080
  19. Stream size : 5.58 GiB (98%)
  20. Default : Yes
  21. Forced : No
  22. Color range : Limited
  23. Color primaries : BT.2020
  24. Transfer characteristics : PQ
  25. Matrix coefficients : BT.2020 non-constant
  26. Mastering display color primaries : BT.2020
  27. Mastering display luminance : min: 0.0010 cd/m2, max: 1000 cd/m2

  28. Audio
  29. ID : 2
  30. Format : E-AC-3
  31. Format/Info : Enhanced AC-3
  32. Commercial name : Dolby Digital Plus
  33. Codec ID : A_EAC3
  34. Duration : 49 min 55 s
  35. Bit rate mode : Constant
  36. Bit rate : 256 kb/s
  37. Channel(s) : 6 channels
  38. Channel layout : L R C LFE Ls Rs
  39. Sampling rate : 48.0 kHz
  40. Frame rate : 31.250 FPS (1536 SPF)
  41. Compression mode : Lossy
  42. Stream size : 91.4 MiB (2%)
  43. Language : English
  44. Service kind : Complete Main
  45. Default : Yes
  46. Forced : No

  47. Text #1
  48. ID : 3
  49. Format : UTF-8
  50. Codec ID : S_TEXT/UTF8
  51. Codec ID/Info : UTF-8 Plain Text
  52. Duration : 49 min 30 s
  53. Bit rate : 68 b/s
  54. Count of elements : 739
  55. Stream size : 24.7 KiB (0%)
  56. Language : Danish
  57. Default : No
  58. Forced : No

  59. Text #2
  60. ID : 4
  61. Format : UTF-8
  62. Codec ID : S_TEXT/UTF8
  63. Codec ID/Info : UTF-8 Plain Text
  64. Duration : 49 min 30 s
  65. Bit rate : 80 b/s
  66. Count of elements : 742
  67. Stream size : 29.1 KiB (0%)
  68. Language : German
  69. Default : No
  70. Forced : No

  71. Text #3
  72. ID : 5
  73. Format : UTF-8
  74. Codec ID : S_TEXT/UTF8
  75. Codec ID/Info : UTF-8 Plain Text
  76. Duration : 49 min 42 s
  77. Bit rate : 80 b/s
  78. Count of elements : 699
  79. Stream size : 29.5 KiB (0%)
  80. Title : (SDH)
  81. Language : English
  82. Default : No
  83. Forced : No

  84. Text #4
  85. ID : 6
  86. Format : UTF-8
  87. Codec ID : S_TEXT/UTF8
  88. Codec ID/Info : UTF-8 Plain Text
  89. Duration : 49 min 30 s
  90. Bit rate : 68 b/s
  91. Count of elements : 693
  92. Stream size : 24.9 KiB (0%)
  93. Language : Finnish
  94. Default : No
  95. Forced : No

  96. Text #5
  97. ID : 7
  98. Format : UTF-8
  99. Codec ID : S_TEXT/UTF8
  100. Codec ID/Info : UTF-8 Plain Text
  101. Duration : 49 min 30 s
  102. Bit rate : 72 b/s
  103. Count of elements : 730
  104. Stream size : 26.3 KiB (0%)
  105. Language : French
  106. Default : No
  107. Forced : No

  108. Text #6
  109. ID : 8
  110. Format : UTF-8
  111. Codec ID : S_TEXT/UTF8
  112. Codec ID/Info : UTF-8 Plain Text
  113. Duration : 49 min 30 s
  114. Bit rate : 65 b/s
  115. Count of elements : 735
  116. Stream size : 23.7 KiB (0%)
  117. Language : Italian
  118. Default : No
  119. Forced : No

  120. Text #7
  121. ID : 9
  122. Format : UTF-8
  123. Codec ID : S_TEXT/UTF8
  124. Codec ID/Info : UTF-8 Plain Text
  125. Duration : 49 min 30 s
  126. Bit rate : 64 b/s
  127. Count of elements : 521
  128. Stream size : 23.3 KiB (0%)
  129. Language : Dutch
  130. Default : No
  131. Forced : No

  132. Text #8
  133. ID : 10
  134. Format : UTF-8
  135. Codec ID : S_TEXT/UTF8
  136. Codec ID/Info : UTF-8 Plain Text
  137. Duration : 49 min 30 s
  138. Bit rate : 67 b/s
  139. Count of elements : 734
  140. Stream size : 24.5 KiB (0%)
  141. Language : Norwegian
  142. Default : No
  143. Forced : No

  144. Text #9
  145. ID : 11
  146. Format : UTF-8
  147. Codec ID : S_TEXT/UTF8
  148. Codec ID/Info : UTF-8 Plain Text
  149. Duration : 49 min 30 s
  150. Bit rate : 65 b/s
  151. Count of elements : 740
  152. Stream size : 23.8 KiB (0%)
  153. Language : Polish
  154. Default : No
  155. Forced : No

  156. Text #10
  157. ID : 12
  158. Format : UTF-8
  159. Codec ID : S_TEXT/UTF8
  160. Codec ID/Info : UTF-8 Plain Text
  161. Duration : 49 min 30 s
  162. Bit rate : 75 b/s
  163. Count of elements : 743
  164. Stream size : 27.4 KiB (0%)
  165. Language : Portuguese
  166. Default : No
  167. Forced : No

  168. Text #11
  169. ID : 13
  170. Format : UTF-8
  171. Codec ID : S_TEXT/UTF8
  172. Codec ID/Info : UTF-8 Plain Text
  173. Duration : 49 min 30 s
  174. Bit rate : 74 b/s
  175. Count of elements : 726
  176. Stream size : 27.2 KiB (0%)
  177. Language : Spanish
  178. Default : No
  179. Forced : No

  180. Text #12
  181. ID : 14
  182. Format : UTF-8
  183. Codec ID : S_TEXT/UTF8
  184. Codec ID/Info : UTF-8 Plain Text
  185. Duration : 49 min 30 s
  186. Bit rate : 69 b/s
  187. Count of elements : 706
  188. Stream size : 25.3 KiB (0%)
  189. Language : Swedish
  190. Default : No
  191. Forced : No
复制代码

踮起脚尖4k On.Pointe.S01.2160p.DSNP.WEBRip.x265.10bit.HDR.DDP5.1.美剧下载

踮起脚尖4k On.Pointe.S01.2160p.DSNP.WEBRip.x265.10bit.HDR.DDP5.1【29.31 GB】
[Hao4k]踮起脚尖4k On.Pointe.S01.2160p.DSNP.WEBRip.x265.10bit.HDR.DDP5.1-ROCCaT[r.torrent (74.28 KB)
回复

使用道具 举报

全部回复5

skytime 发表于 2020-12-30 11:37:16 Hao4K手机版

skytime 沙发

2020-12-30 11:37:16

已下载,多谢分享纪录片
回复 支持 反对

使用道具 举报

xxw8888 发表于 2021-1-7 10:26:48

xxw8888 板凳

2021-1-7 10:26:48

感谢分享,辛苦了
回复 支持 反对

使用道具 举报

13322981056 发表于 2021-1-9 21:35:28

13322981056 地板

2021-1-9 21:35:28

谢谢楼主,这个题材很有趣,有中文字幕吗?
回复 支持 反对

使用道具 举报

linke50 发表于 5 天前

linke50 5#

5 天前

我都不想说你们,不是因为图进来的?
回复 支持 反对

使用道具 举报

kevinxu79 发表于 4 天前

kevinxu79 6#

4 天前

这个可以看看
回复 支持 反对

使用道具 举报

发表回复

您需要登录后才可以回帖 登录 | 立即注册

返回列表 本版积分规则

:
白银玩家
:
未填写

主题

帖子

积分931

图文推荐

  • 即将发布:窈窕淑女4K UHD蓝光原盘电影下载

    最新消息:1964年美国经典剧情/爱情片《窈窕淑女

  • KODI添加视频无法连接远程服务器。

    KODI添加视频无法连接远程服务器。是刮削器的问题

  • 马兰士SR7015 8K功放介绍及试用评测分享

    马兰士所有的家庭影院当中,性价比最高的产品是哪

  • 比特彗星下载停在99.9百分之。怎么办?

    已经用电脑挂机下载好几天了,下载的是指环王3停

  • 基于 PotPlayer 和 madVR 的播放器的设置教

    文章转载自:vcb-s Potplayer 是高清影视常用的

  • 在线客服

  • 返回顶部