微博 微信

Hao4K影音

电影频道
电影封面:
片  名: 心灵奇旅4k
电影分类: 冒险 喜剧 奇幻 动画 
国  家: 美国 
年  代: 2020年
分 辨 率: 4K(3840x2160)
电影格式: MKV|REMUX 
画质标准: HDR SDR 
音质编码: Dolby Digital Plus Audio 
电影声道: 5.1声道 
帧数/FPS: 23.976 FPS
电影语言: 英文原版 
资源大小: 16.18 GB
导  演: 彼特·道格特 / 坎普·鲍尔斯
豆瓣评分: 16.18 分
中文字幕: /thread-52682-1-1.html
剧情简介: 主角Gardner是一个生活很容易看穿的中学音乐老师,而他真正的梦想是弹钢琴——不是像他现在做的一样只教孩子们弹钢琴,而是以做音乐、做爵士乐来谋生。当他终于拿到人生第一份音乐人的工作,却不小心掉进了下水道“死”了,并在一个黑洞中醒来,成为了一个孤独的灵魂。
  不久,它发现自己不是独自一魂,而是到了YOU研讨会,另一个外号叫22的灵魂已经参加了研讨会数百年,它极度憎恨人类,一直未去附体。很快的,Gardner和22一起回到现实世界,在那里,Gardner将学会“有了灵魂”真正的含义。
灵魂奇遇记(港) / 灵魂急转弯(台) / 灵魂 / 心灵/心灵奇旅4k Soul.2020.2160p.DSNP.WEBRip.x265.10bit.HDR.DDP5.1.Atmos.电影信息
  1. Video
  2. ID : 1
  3. Format : HEVC
  4. Format/Info : High Efficiency Video Coding
  5. Format profile : Main 10@L5@Main
  6. Codec ID : V_MPEGH/ISO/HEVC
  7. Duration : 1 h 40 min
  8. Bit rate : 22.3 Mb/s
  9. Width : 3 840 pixels
  10. Height : 2 160 pixels
  11. Display aspect ratio : 16:9
  12. Frame rate mode : Constant
  13. Frame rate : 23.976 (24000/1001) FPS
  14. Color space : YUV
  15. Chroma subsampling : 4:2:0
  16. Bit depth : 10 bits
  17. Bits/(Pixel*Frame) : 0.112
  18. Stream size : 15.6 GiB (97%)
  19. Writing library : x265 3.4:[Linux][GCC 7.5.0][64 bit] 10bit
  20. Encoding settings : cpuid=1111039 / frame-threads=1 / wpp / no-pmode / no-pme / no-psnr / no-ssim / log-level=2 / input-csp=1 / input-res=3840x2160 / interlace=0 / total-frames=0 / level-idc=50 / high-tier=0 / uhd-bd=0 / ref=3 / no-allow-non-conformance / repeat-headers / annexb / no-aud / no-hrd / info / hash=0 / no-temporal-layers / no-open-gop / min-keyint=48 / keyint=48 / gop-lookahead=0 / bframes=2 / b-adapt=0 / b-pyramid / bframe-bias=0 / rc-lookahead=48 / lookahead-slices=8 / scenecut=0 / hist-scenecut=0 / radl=0 / no-splice / no-intra-refresh / ctu=32 / min-cu-size=8 / no-rect / no-amp / max-tu-size=16 / tu-inter-depth=2 / tu-intra-depth=2 / limit-tu=0 / rdoq-level=1 / dynamic-rd=0.00 / no-ssim-rd / signhide / no-tskip / nr-intra=0 / nr-inter=0 / no-constrained-intra / no-strong-intra-smoothing / max-merge=3 / limit-refs=1 / no-limit-modes / me=1 / subme=2 / merange=44 / temporal-mvp / no-frame-dup / no-hme / weightp / no-weightb / no-analyze-src-pics / deblock=0:0 / no-sao / no-sao-non-deblock / rd=4 / selective-sao=0 / early-skip / rskip / no-fast-intra / no-tskip-fast / no-cu-lossless / b-intra / no-splitrd-skip / rdpenalty=1 / psy-rd=1.60 / psy-rdoq=5.00 / no-rd-refine / no-lossless / cbqpoffs=0 / crqpoffs=0 / rc=abr / bitrate=23000 / qcomp=0.75 / qpstep=4 / stats-write=0 / stats-read=0 / vbv-maxrate=25000 / vbv-bufsize=25000 / vbv-init=0.9 / ipratio=1.40 / pbratio=1.30 / aq-mode=3 / aq-strength=1.00 / no-cutree / zone-count=0 / no-strict-cbr / qg-size=32 / no-rc-grain / qpmax=69 / qpmin=0 / no-const-vbv / sar=1 / overscan=0 / videoformat=5 / range=0 / colorprim=9 / transfer=16 / colormatrix=9 / chromaloc=0 / display-window=0 / cll=0,0 / min-luma=0 / max-luma=1023 / log2-max-poc-lsb=8 / vui-timing-info / vui-hrd-info / slices=1 / no-opt-qp-pps / no-opt-ref-list-length-pps / no-multi-pass-opt-rps / scenecut-bias=0.00 / hist-threshold=0.01 / no-opt-cu-delta-qp / no-aq-motion / no-hdr10 / hdr10-opt / no-dhdr10-opt / no-idr-recovery-sei / analysis-reuse-level=0 / analysis-save-reuse-level=0 / analysis-load-reuse-level=0 / scale-factor=0 / refine-intra=0 / refine-inter=0 / refine-mv=1 / refine-ctu-distortion=0 / no-limit-sao / ctu-info=0 / no-lowpass-dct / refine-analysis-type=0 / copy-pic=1 / max-ausize-factor=1.0 / no-dynamic-refine / no-single-sei / no-hevc-aq / no-svt / no-field / qp-adaptation-range=1.00 / no-scenecut-aware-qpconformance-window-offsets / right=0 / bottom=0
  21. Default : Yes
  22. Forced : No
  23. Color range : Limited
  24. Color primaries : BT.2020
  25. Transfer characteristics : PQ
  26. Matrix coefficients : BT.2020 non-constant

  27. Audio
  28. ID : 2
  29. Format : E-AC-3 JOC
  30. Format/Info : Enhanced AC-3 with Joint Object Coding
  31. Commercial name : Dolby Digital Plus with Dolby Atmos
  32. Codec ID : A_EAC3
  33. Duration : 1 h 40 min
  34. Bit rate mode : Constant
  35. Bit rate : 768 kb/s
  36. Channel(s) : 6 channels
  37. Channel layout : L R C LFE Ls Rs
  38. Sampling rate : 48.0 kHz
  39. Frame rate : 31.250 FPS (1536 SPF)
  40. Compression mode : Lossy
  41. Stream size : 552 MiB (3%)
  42. Title : English
  43. Language : English
  44. Service kind : Complete Main
  45. Default : Yes
  46. Forced : No
  47. Complexity index : 16
  48. Number of dynamic objects : 15
  49. Bed channel count : 1 channel
  50. Bed channel configuration : LFE

  51. Text #1
  52. ID : 3
  53. Format : UTF-8
  54. Codec ID : S_TEXT/UTF8
  55. Codec ID/Info : UTF-8 Plain Text
  56. Duration : 1 h 39 min
  57. Bit rate : 68 b/s
  58. Count of elements : 1599
  59. Stream size : 49.9 KiB (0%)
  60. Title : English
  61. Language : English
  62. Default : No
  63. Forced : No

  64. Text #2
  65. ID : 4
  66. Format : UTF-8
  67. Codec ID : S_TEXT/UTF8
  68. Codec ID/Info : UTF-8 Plain Text
  69. Duration : 1 h 40 min
  70. Bit rate : 78 b/s
  71. Count of elements : 1855
  72. Stream size : 57.7 KiB (0%)
  73. Title : English [SDH]
  74. Language : English
  75. Default : No
  76. Forced : No

  77. Text #3
  78. ID : 5
  79. Format : UTF-8
  80. Codec ID : S_TEXT/UTF8
  81. Codec ID/Info : UTF-8 Plain Text
  82. Duration : 1 h 39 min
  83. Bit rate : 65 b/s
  84. Count of elements : 1156
  85. Stream size : 47.7 KiB (0%)
  86. Title : Brazilian Portuguese
  87. Language : Portuguese
  88. Default : No
  89. Forced : No

  90. Text #4
  91. ID : 6
  92. Format : UTF-8
  93. Codec ID : S_TEXT/UTF8
  94. Codec ID/Info : UTF-8 Plain Text
  95. Duration : 1 h 39 min
  96. Bit rate : 82 b/s
  97. Count of elements : 1798
  98. Stream size : 60.2 KiB (0%)
  99. Title : French Canadian
  100. Language : French
  101. Default : No
  102. Forced : No

  103. Text #5
  104. ID : 7
  105. Format : UTF-8
  106. Codec ID : S_TEXT/UTF8
  107. Codec ID/Info : UTF-8 Plain Text
  108. Duration : 1 h 39 min
  109. Bit rate : 59 b/s
  110. Count of elements : 975
  111. Stream size : 43.6 KiB (0%)
  112. Title : Danish
  113. Language : Danish
  114. Default : No
  115. Forced : No

  116. Text #6
  117. ID : 8
  118. Format : UTF-8
  119. Codec ID : S_TEXT/UTF8
  120. Codec ID/Info : UTF-8 Plain Text
  121. Duration : 1 h 39 min
  122. Bit rate : 76 b/s
  123. Count of elements : 1457
  124. Stream size : 55.9 KiB (0%)
  125. Title : German
  126. Language : German
  127. Default : No
  128. Forced : No

  129. Text #7
  130. ID : 9
  131. Format : UTF-8
  132. Codec ID : S_TEXT/UTF8
  133. Codec ID/Info : UTF-8 Plain Text
  134. Duration : 1 h 39 min
  135. Bit rate : 60 b/s
  136. Count of elements : 1324
  137. Stream size : 44.2 KiB (0%)
  138. Title : European Spanish
  139. Language : Spanish
  140. Default : No
  141. Forced : No

  142. Text #8
  143. ID : 10
  144. Format : UTF-8
  145. Codec ID : S_TEXT/UTF8
  146. Codec ID/Info : UTF-8 Plain Text
  147. Duration : 1 h 39 min
  148. Bit rate : 61 b/s
  149. Count of elements : 1325
  150. Stream size : 44.9 KiB (0%)
  151. Title : Finnish
  152. Language : Finnish
  153. Default : No
  154. Forced : No

  155. Text #9
  156. ID : 11
  157. Format : UTF-8
  158. Codec ID : S_TEXT/UTF8
  159. Codec ID/Info : UTF-8 Plain Text
  160. Duration : 1 h 39 min
  161. Bit rate : 72 b/s
  162. Count of elements : 1674
  163. Stream size : 53.0 KiB (0%)
  164. Title : French
  165. Language : French
  166. Default : No
  167. Forced : No

  168. Text #10
  169. ID : 12
  170. Format : UTF-8
  171. Codec ID : S_TEXT/UTF8
  172. Codec ID/Info : UTF-8 Plain Text
  173. Duration : 1 h 39 min
  174. Bit rate : 61 b/s
  175. Count of elements : 1325
  176. Stream size : 45.3 KiB (0%)
  177. Title : Icelandic
  178. Language : Icelandic
  179. Default : No
  180. Forced : No

  181. Text #11
  182. ID : 13
  183. Format : UTF-8
  184. Codec ID : S_TEXT/UTF8
  185. Codec ID/Info : UTF-8 Plain Text
  186. Duration : 1 h 39 min
  187. Bit rate : 62 b/s
  188. Count of elements : 1337
  189. Stream size : 45.4 KiB (0%)
  190. Title : Italian
  191. Language : Italian
  192. Default : No
  193. Forced : No

  194. Text #12
  195. ID : 14
  196. Format : UTF-8
  197. Codec ID : S_TEXT/UTF8
  198. Codec ID/Info : UTF-8 Plain Text
  199. Duration : 1 h 39 min
  200. Bit rate : 50 b/s
  201. Count of elements : 1073
  202. Stream size : 36.7 KiB (0%)
  203. Title : Dutch
  204. Language : Dutch
  205. Default : No
  206. Forced : No

  207. Text #13
  208. ID : 15
  209. Format : UTF-8
  210. Codec ID : S_TEXT/UTF8
  211. Codec ID/Info : UTF-8 Plain Text
  212. Duration : 1 h 39 min
  213. Bit rate : 57 b/s
  214. Count of elements : 1339
  215. Stream size : 41.9 KiB (0%)
  216. Title : Norwegian
  217. Language : Norwegian
  218. Default : No
  219. Forced : No

  220. Text #14
  221. ID : 16
  222. Format : UTF-8
  223. Codec ID : S_TEXT/UTF8
  224. Codec ID/Info : UTF-8 Plain Text
  225. Duration : 1 h 39 min
  226. Bit rate : 64 b/s
  227. Count of elements : 1334
  228. Stream size : 46.9 KiB (0%)
  229. Title : Portuguese
  230. Language : Portuguese
  231. Default : No
  232. Forced : No

  233. Text #15
  234. ID : 17
  235. Format : UTF-8
  236. Codec ID : S_TEXT/UTF8
  237. Codec ID/Info : UTF-8 Plain Text
  238. Duration : 1 h 39 min
  239. Bit rate : 65 b/s
  240. Count of elements : 1306
  241. Stream size : 48.1 KiB (0%)
  242. Title : Spanish
  243. Language : Spanish
  244. Default : No
  245. Forced : No

  246. Text #16
  247. ID : 18
  248. Format : UTF-8
  249. Codec ID : S_TEXT/UTF8
  250. Codec ID/Info : UTF-8 Plain Text
  251. Duration : 1 h 39 min
  252. Bit rate : 54 b/s
  253. Count of elements : 987
  254. Stream size : 39.8 KiB (0%)
  255. Title : Swedish
  256. Language : Swedish
  257. Default : No
  258. Forced : No
复制代码

灵魂奇遇记(港) / 灵魂急转弯(台) / 灵魂 / 心灵/心灵奇旅4k Soul.2020.2160p.DSNP.WEBRip.x265.10bit.HDR.DDP5.1.Atmos.电影下载

心灵奇旅4k Soul.2020.2160p.DSNP.WEBRip.x265.8bit.SDR.DDP5.1.Atmos【14.47 GB】
[Hao4k]心灵奇旅4k Soul.2020.2160p.DSNP.WEBRip.x265.8bit.SDR.DDP5.1.Atmos-CM.torrent (72.9 KB, 售价: 3 K币)
心灵奇旅4k Soul.2020.2160p.WEB.H265【14.22 GB】
[Hao4k]心灵奇旅4k Soul.2020.2160p.WEB.H265-NAISU.torrent (71.71 KB, 售价: 3 K币)
心灵奇旅4k Soul.2020.2160p.DSNP.WEBRip.x265.10bit.HDR.DDP5.1.Atmos【16.18 GB】
[Hao4k]心灵奇旅4k Soul.2020.2160p.DSNP.WEBRip.x265.10bit.HDR.DDP5.1.Atmos-CM.torrent (81.41 KB, 售价: 3 K币)
心灵奇旅4k Soul.2020.HDR.2160p.WEB.H265【15.94 GB】
[Hao4k]心灵奇旅4k Soul.2020.HDR.2160p.WEB.H265-NAISU.torrent (80.34 KB, 售价: 3 K币)

请勿使用迅雷下载,此资源迅雷下载会提示没有版权,请换其他下载软件下载(推荐使用115下载

心灵奇旅4k电影中文字幕下载 感谢K友@xzhuawei分享的字幕
https://www.hao4k.cn/thread-52682-1-1.html
分享到:  QQ好友和群QQ好友和群
回复

使用道具 举报

   发表回复

您需要登录后才可以回帖 登录 | 立即注册

返回列表 本版积分规则

  • 在线客服

  • 返回顶部