微博 微信

Hao4K影音

电影频道
电影封面:
片  名: 狼行者4K
电影分类: 冒险 奇幻 动画 
国  家: 美国 其他 
年  代: 2020年
分 辨 率: 4K(3840x2160)
电影格式: MKV|REMUX 
画质标准: HDR SDR 
音质编码: Dolby Digital Plus Audio 
电影声道: 5.1声道 
帧数/FPS: 23.976 FPS
电影语言: 英文原版 
资源大小: 17.76 GB
导  演: 汤姆·摩尔 / 罗斯·斯图尔特
豆瓣评分: 8.3 分
中文字幕: -
剧情简介: 讲述了11岁女孩罗芬的神奇经历。罗芬作为一个年轻的学徒猎人,她和父亲一起来到爱尔兰,准备消灭最后一批在那里的狼,但是改变她的事情来了,她发现了狼行者,此后一连串的古怪故事就发生了
狼行者4K.Wolfwalkers.2020.2160p.ATVP.WEB-DL.x265.10bit.HDR.DDP5.1.Atmoss-电影信息
  1. Video
  2. ID : 1
  3. Format : HEVC
  4. Format/Info : High Efficiency Video Coding
  5. Format profile : Main 10@L5@High
  6. Codec ID : V_MPEGH/ISO/HEVC
  7. Duration : 1 h 42 min
  8. Bit rate : 19.8 Mb/s
  9. Width : 3 840 pixels
  10. Height : 2 076 pixels
  11. Display aspect ratio : 1.85:1
  12. Frame rate mode : Constant
  13. Frame rate : 23.976 (24000/1001) FPS
  14. Color space : YUV
  15. Chroma subsampling : 4:2:0
  16. Bit depth : 10 bits
  17. Bits/(Pixel*Frame) : 0.104
  18. Stream size : 14.2 GiB (96%)
  19. Language : English
  20. Default : Yes
  21. Forced : No
  22. Color range : Limited
  23. Color primaries : BT.709
  24. Transfer characteristics : BT.709
  25. Matrix coefficients : BT.709

  26. Audio
  27. ID : 2
  28. Format : E-AC-3 JOC
  29. Format/Info : Enhanced AC-3 with Joint Object Coding
  30. Commercial name : Dolby Digital Plus with Dolby Atmos
  31. Codec ID : A_EAC3
  32. Duration : 1 h 42 min
  33. Bit rate mode : Constant
  34. Bit rate : 768 kb/s
  35. Channel(s) : 6 channels
  36. Channel layout : L R C LFE Ls Rs
  37. Sampling rate : 48.0 kHz
  38. Frame rate : 31.250 FPS (1536 SPF)
  39. Compression mode : Lossy
  40. Stream size : 563 MiB (4%)
  41. Language : English
  42. Service kind : Complete Main
  43. Default : Yes
  44. Forced : No
  45. Complexity index : 16
  46. Number of dynamic objects : 15
  47. Bed channel count : 1 channel
  48. Bed channel configuration : LFE

  49. Text #1
  50. ID : 3
  51. Format : UTF-8
  52. Codec ID : S_TEXT/UTF8
  53. Codec ID/Info : UTF-8 Plain Text
  54. Duration : 1 h 41 min
  55. Bit rate : 62 b/s
  56. Count of elements : 1106
  57. Stream size : 46.7 KiB (0%)
  58. Language : Arabic
  59. Default : No
  60. Forced : No

  61. Text #2
  62. ID : 4
  63. Format : UTF-8
  64. Codec ID : S_TEXT/UTF8
  65. Codec ID/Info : UTF-8 Plain Text
  66. Duration : 1 h 41 min
  67. Bit rate : 66 b/s
  68. Count of elements : 1069
  69. Stream size : 49.1 KiB (0%)
  70. Language : Bulgarian
  71. Default : No
  72. Forced : No

  73. Text #3
  74. ID : 5
  75. Format : UTF-8
  76. Codec ID : S_TEXT/UTF8
  77. Codec ID/Info : UTF-8 Plain Text
  78. Duration : 1 h 41 min
  79. Bit rate : 40 b/s
  80. Count of elements : 1091
  81. Stream size : 30.0 KiB (0%)
  82. Language : Czech
  83. Default : No
  84. Forced : No

  85. Text #4
  86. ID : 6
  87. Format : UTF-8
  88. Codec ID : S_TEXT/UTF8
  89. Codec ID/Info : UTF-8 Plain Text
  90. Duration : 1 h 41 min
  91. Bit rate : 43 b/s
  92. Count of elements : 1116
  93. Stream size : 32.1 KiB (0%)
  94. Language : Chinese
  95. Default : No
  96. Forced : No

  97. Text #5
  98. ID : 7
  99. Format : UTF-8
  100. Codec ID : S_TEXT/UTF8
  101. Codec ID/Info : UTF-8 Plain Text
  102. Duration : 1 h 41 min
  103. Bit rate : 45 b/s
  104. Count of elements : 1062
  105. Stream size : 33.6 KiB (0%)
  106. Language : Danish
  107. Default : No
  108. Forced : No

  109. Text #6
  110. ID : 8
  111. Format : UTF-8
  112. Codec ID : S_TEXT/UTF8
  113. Codec ID/Info : UTF-8 Plain Text
  114. Duration : 1 h 41 min
  115. Bit rate : 48 b/s
  116. Count of elements : 1032
  117. Stream size : 35.7 KiB (0%)
  118. Language : German
  119. Default : No
  120. Forced : No

  121. Text #7
  122. ID : 9
  123. Format : UTF-8
  124. Codec ID : S_TEXT/UTF8
  125. Codec ID/Info : UTF-8 Plain Text
  126. Duration : 1 h 41 min
  127. Bit rate : 73 b/s
  128. Count of elements : 1106
  129. Stream size : 54.9 KiB (0%)
  130. Language : Greek
  131. Default : No
  132. Forced : No

  133. Text #8
  134. ID : 10
  135. Format : UTF-8
  136. Codec ID : S_TEXT/UTF8
  137. Codec ID/Info : UTF-8 Plain Text
  138. Duration : 1 h 36 min
  139. Bit rate : 49 b/s
  140. Count of elements : 1151
  141. Stream size : 35.0 KiB (0%)
  142. Language : English
  143. Default : No
  144. Forced : No

  145. Text #9
  146. ID : 11
  147. Format : UTF-8
  148. Codec ID : S_TEXT/UTF8
  149. Codec ID/Info : UTF-8 Plain Text
  150. Duration : 1 h 37 min
  151. Bit rate : 63 b/s
  152. Count of elements : 1639
  153. Stream size : 45.7 KiB (0%)
  154. Title : (SDH)
  155. Language : English
  156. Default : No
  157. Forced : No

  158. Text #10
  159. ID : 12
  160. Format : UTF-8
  161. Codec ID : S_TEXT/UTF8
  162. Codec ID/Info : UTF-8 Plain Text
  163. Duration : 1 h 41 min
  164. Bit rate : 42 b/s
  165. Count of elements : 1072
  166. Stream size : 31.5 KiB (0%)
  167. Language : Estonian
  168. Default : No
  169. Forced : No

  170. Text #11
  171. ID : 13
  172. Format : UTF-8
  173. Codec ID : S_TEXT/UTF8
  174. Codec ID/Info : UTF-8 Plain Text
  175. Duration : 1 h 41 min
  176. Bit rate : 42 b/s
  177. Count of elements : 1112
  178. Stream size : 31.8 KiB (0%)
  179. Language : Finnish
  180. Default : No
  181. Forced : No

  182. Text #12
  183. ID : 14
  184. Format : UTF-8
  185. Codec ID : S_TEXT/UTF8
  186. Codec ID/Info : UTF-8 Plain Text
  187. Duration : 1 h 41 min
  188. Bit rate : 40 b/s
  189. Count of elements : 1100
  190. Stream size : 29.7 KiB (0%)
  191. Language : French
  192. Default : No
  193. Forced : No

  194. Text #13
  195. ID : 15
  196. Format : UTF-8
  197. Codec ID : S_TEXT/UTF8
  198. Codec ID/Info : UTF-8 Plain Text
  199. Duration : 1 h 41 min
  200. Bit rate : 61 b/s
  201. Count of elements : 1114
  202. Stream size : 45.5 KiB (0%)
  203. Language : Hebrew
  204. Default : No
  205. Forced : No

  206. Text #14
  207. ID : 16
  208. Format : UTF-8
  209. Codec ID : S_TEXT/UTF8
  210. Codec ID/Info : UTF-8 Plain Text
  211. Duration : 1 h 41 min
  212. Bit rate : 118 b/s
  213. Count of elements : 1116
  214. Stream size : 88.3 KiB (0%)
  215. Language : Hindi
  216. Default : No
  217. Forced : No

  218. Text #15
  219. ID : 17
  220. Format : UTF-8
  221. Codec ID : S_TEXT/UTF8
  222. Codec ID/Info : UTF-8 Plain Text
  223. Duration : 1 h 41 min
  224. Bit rate : 45 b/s
  225. Count of elements : 1109
  226. Stream size : 34.1 KiB (0%)
  227. Language : Hungarian
  228. Default : No
  229. Forced : No

  230. Text #16
  231. ID : 18
  232. Format : UTF-8
  233. Codec ID : S_TEXT/UTF8
  234. Codec ID/Info : UTF-8 Plain Text
  235. Duration : 1 h 41 min
  236. Bit rate : 45 b/s
  237. Count of elements : 1112
  238. Stream size : 33.9 KiB (0%)
  239. Language : Indonesian
  240. Default : No
  241. Forced : No

  242. Text #17
  243. ID : 19
  244. Format : UTF-8
  245. Codec ID : S_TEXT/UTF8
  246. Codec ID/Info : UTF-8 Plain Text
  247. Duration : 1 h 41 min
  248. Bit rate : 50 b/s
  249. Count of elements : 1153
  250. Stream size : 37.5 KiB (0%)
  251. Language : Italian
  252. Default : No
  253. Forced : No

  254. Text #18
  255. ID : 20
  256. Format : UTF-8
  257. Codec ID : S_TEXT/UTF8
  258. Codec ID/Info : UTF-8 Plain Text
  259. Duration : 1 h 41 min
  260. Bit rate : 37 b/s
  261. Count of elements : 987
  262. Stream size : 28.1 KiB (0%)
  263. Language : Japanese
  264. Default : No
  265. Forced : No

  266. Text #19
  267. ID : 21
  268. Format : UTF-8
  269. Codec ID : S_TEXT/UTF8
  270. Codec ID/Info : UTF-8 Plain Text
  271. Duration : 1 h 41 min
  272. Bit rate : 52 b/s
  273. Count of elements : 1110
  274. Stream size : 38.7 KiB (0%)
  275. Language : Korean
  276. Default : No
  277. Forced : No

  278. Text #20
  279. ID : 22
  280. Format : UTF-8
  281. Codec ID : S_TEXT/UTF8
  282. Codec ID/Info : UTF-8 Plain Text
  283. Duration : 1 h 41 min
  284. Bit rate : 47 b/s
  285. Count of elements : 1113
  286. Stream size : 35.3 KiB (0%)
  287. Language : Latvian
  288. Default : No
  289. Forced : No

  290. Text #21
  291. ID : 23
  292. Format : UTF-8
  293. Codec ID : S_TEXT/UTF8
  294. Codec ID/Info : UTF-8 Plain Text
  295. Duration : 1 h 41 min
  296. Bit rate : 43 b/s
  297. Count of elements : 1109
  298. Stream size : 32.2 KiB (0%)
  299. Language : Lithuanian
  300. Default : No
  301. Forced : No

  302. Text #22
  303. ID : 24
  304. Format : UTF-8
  305. Codec ID : S_TEXT/UTF8
  306. Codec ID/Info : UTF-8 Plain Text
  307. Duration : 1 h 40 min
  308. Bit rate : 44 b/s
  309. Count of elements : 1111
  310. Stream size : 32.6 KiB (0%)
  311. Language : Malay
  312. Default : No
  313. Forced : No

  314. Text #23
  315. ID : 25
  316. Format : UTF-8
  317. Codec ID : S_TEXT/UTF8
  318. Codec ID/Info : UTF-8 Plain Text
  319. Duration : 1 h 41 min
  320. Bit rate : 43 b/s
  321. Count of elements : 911
  322. Stream size : 32.3 KiB (0%)
  323. Language : Dutch
  324. Default : No
  325. Forced : No

  326. Text #24
  327. ID : 26
  328. Format : UTF-8
  329. Codec ID : S_TEXT/UTF8
  330. Codec ID/Info : UTF-8 Plain Text
  331. Duration : 1 h 41 min
  332. Bit rate : 41 b/s
  333. Count of elements : 1099
  334. Stream size : 30.5 KiB (0%)
  335. Language : Norwegian
  336. Default : No
  337. Forced : No

  338. Text #25
  339. ID : 27
  340. Format : UTF-8
  341. Codec ID : S_TEXT/UTF8
  342. Codec ID/Info : UTF-8 Plain Text
  343. Duration : 1 h 41 min
  344. Bit rate : 42 b/s
  345. Count of elements : 1099
  346. Stream size : 31.5 KiB (0%)
  347. Language : Polish
  348. Default : No
  349. Forced : No

  350. Text #26
  351. ID : 28
  352. Format : UTF-8
  353. Codec ID : S_TEXT/UTF8
  354. Codec ID/Info : UTF-8 Plain Text
  355. Duration : 1 h 41 min
  356. Bit rate : 39 b/s
  357. Count of elements : 1102
  358. Stream size : 29.4 KiB (0%)
  359. Language : Portuguese
  360. Default : No
  361. Forced : No

  362. Text #27
  363. ID : 29
  364. Format : UTF-8
  365. Codec ID : S_TEXT/UTF8
  366. Codec ID/Info : UTF-8 Plain Text
  367. Duration : 1 h 41 min
  368. Bit rate : 62 b/s
  369. Count of elements : 1114
  370. Stream size : 46.3 KiB (0%)
  371. Language : Russian
  372. Default : No
  373. Forced : No

  374. Text #28
  375. ID : 30
  376. Format : UTF-8
  377. Codec ID : S_TEXT/UTF8
  378. Codec ID/Info : UTF-8 Plain Text
  379. Duration : 1 h 41 min
  380. Bit rate : 43 b/s
  381. Count of elements : 1111
  382. Stream size : 32.0 KiB (0%)
  383. Language : Slovak
  384. Default : No
  385. Forced : No

  386. Text #29
  387. ID : 31
  388. Format : UTF-8
  389. Codec ID : S_TEXT/UTF8
  390. Codec ID/Info : UTF-8 Plain Text
  391. Duration : 1 h 41 min
  392. Bit rate : 34 b/s
  393. Count of elements : 939
  394. Stream size : 25.9 KiB (0%)
  395. Language : Slovenian
  396. Default : No
  397. Forced : No

  398. Text #30
  399. ID : 32
  400. Format : UTF-8
  401. Codec ID : S_TEXT/UTF8
  402. Codec ID/Info : UTF-8 Plain Text
  403. Duration : 1 h 41 min
  404. Bit rate : 44 b/s
  405. Count of elements : 1078
  406. Stream size : 32.9 KiB (0%)
  407. Language : Spanish
  408. Default : No
  409. Forced : No

  410. Text #31
  411. ID : 33
  412. Format : UTF-8
  413. Codec ID : S_TEXT/UTF8
  414. Codec ID/Info : UTF-8 Plain Text
  415. Duration : 1 h 41 min
  416. Bit rate : 45 b/s
  417. Count of elements : 1113
  418. Stream size : 33.7 KiB (0%)
  419. Language : Swedish
  420. Default : No
  421. Forced : No

  422. Text #32
  423. ID : 34
  424. Format : UTF-8
  425. Codec ID : S_TEXT/UTF8
  426. Codec ID/Info : UTF-8 Plain Text
  427. Duration : 1 h 41 min
  428. Bit rate : 149 b/s
  429. Count of elements : 1109
  430. Stream size : 111 KiB (0%)
  431. Language : Tamil
  432. Default : No
  433. Forced : No

  434. Text #33
  435. ID : 35
  436. Format : UTF-8
  437. Codec ID : S_TEXT/UTF8
  438. Codec ID/Info : UTF-8 Plain Text
  439. Duration : 1 h 41 min
  440. Bit rate : 131 b/s
  441. Count of elements : 1113
  442. Stream size : 97.9 KiB (0%)
  443. Language : Telugu
  444. Default : No
  445. Forced : No

  446. Text #34
  447. ID : 36
  448. Format : UTF-8
  449. Codec ID : S_TEXT/UTF8
  450. Codec ID/Info : UTF-8 Plain Text
  451. Duration : 1 h 41 min
  452. Bit rate : 106 b/s
  453. Count of elements : 1111
  454. Stream size : 79.1 KiB (0%)
  455. Language : Thai
  456. Default : No
  457. Forced : No

  458. Text #35
  459. ID : 37
  460. Format : UTF-8
  461. Codec ID : S_TEXT/UTF8
  462. Codec ID/Info : UTF-8 Plain Text
  463. Duration : 1 h 41 min
  464. Bit rate : 46 b/s
  465. Count of elements : 1113
  466. Stream size : 34.3 KiB (0%)
  467. Language : Turkish
  468. Default : No
  469. Forced : No

  470. Text #36
  471. ID : 38
  472. Format : UTF-8
  473. Codec ID : S_TEXT/UTF8
  474. Codec ID/Info : UTF-8 Plain Text
  475. Duration : 1 h 41 min
  476. Bit rate : 66 b/s
  477. Count of elements : 1108
  478. Stream size : 49.2 KiB (0%)
  479. Language : Ukrainian
  480. Default : No
  481. Forced : No

  482. Text #37
  483. ID : 39
  484. Format : UTF-8
  485. Codec ID : S_TEXT/UTF8
  486. Codec ID/Info : UTF-8 Plain Text
  487. Duration : 1 h 41 min
  488. Bit rate : 57 b/s
  489. Count of elements : 1116
  490. Stream size : 42.7 KiB (0%)
  491. Language : Vietnamese
  492. Default : No
  493. Forced : No
复制代码

狼行者4K.Wolfwalkers.2020.2160p.ATVP.WEB-DL.x265.10bit.HDR.DDP5.1.Atmoss-4k电影下载

狼行者4K.Wolfwalkers.2020.2160p.ATVP.WEB-DL.x265.10bit.HDR.DDP5.1.Atmoss【17.76 GB】
资源停止下载
回复

使用道具 举报

全部回复36

mobin0118 发表于 2020-12-29 15:41:18

mobin0118 沙发

2020-12-29 15:41:18


感谢群主分享
回复 支持 反对

使用道具 举报

luandiaohema2 发表于 2020-12-31 09:12:40

luandiaohema2 地板

2020-12-31 09:12:40

感谢楼主分享,辛苦了
回复 支持 反对

使用道具 举报

管理人员 发表于 2020-12-31 14:58:42

管理人员 5#

2020-12-31 14:58:42

这部片家里的小孩可喜欢了~
回复 支持 反对

使用道具 举报

scx122 发表于 2021-1-1 17:33:40

scx122 6#

2021-1-1 17:33:40

真是太期待了,我很想看这个电影
回复 支持 反对

使用道具 举报

fljp 发表于 2021-1-2 15:53:20

fljp 8#

2021-1-2 15:53:20

感谢群主分享
   
回复 支持 反对

使用道具 举报

litao5062674 发表于 2021-1-2 17:18:18

litao5062674 9#

2021-1-2 17:18:18

怎么下载呢???紫薯布丁
回复 支持 反对

使用道具 举报

alex1997 发表于 2021-1-2 19:38:42

alex1997 10#

2021-1-2 19:38:42

真是太期待了,我很想看这个电影
回复 支持 反对

使用道具 举报

chenning1860 发表于 2021-1-2 20:56:52

chenning1860 11#

2021-1-2 20:56:52

怎么链接点击不了呢?楼主辛苦!
回复 支持 反对

使用道具 举报

lovezw1985 发表于 2021-1-3 12:35:02

lovezw1985 12#

2021-1-3 12:35:02


怎么链接点击不了呢?楼主辛苦!
回复 支持 反对

使用道具 举报

cossoft 发表于 2021-1-3 14:00:02

cossoft 13#

2021-1-3 14:00:02

怎么下载?没链接!
回复 支持 反对

使用道具 举报

peter紫色 发表于 2021-1-3 17:46:25

peter紫色 14#

2021-1-3 17:46:25

怎么下载?没链接!
回复 支持 反对

使用道具 举报

@夜色无心 发表于 2021-1-4 15:51:13

@夜色无心 15#

2021-1-4 15:51:13


怎么下载?没链接!
回复 支持 反对

使用道具 举报

CC142536 发表于 2021-1-5 18:18:00

CC142536 16#

2021-1-5 18:18:00



怎么下载?没链接
回复 支持 反对

使用道具 举报

tttomas 发表于 2021-1-6 15:30:15

tttomas 17#

2021-1-6 15:30:15




怎么下载?没链接
回复 支持 反对

使用道具 举报

asd1233 发表于 2021-1-6 21:44:10

asd1233 18#

2021-1-6 21:44:10



感谢群主分享
回复 支持 反对

使用道具 举报

   发表回复

您需要登录后才可以回帖 登录 | 立即注册

返回列表 本版积分规则

  • 在线客服

  • 返回顶部