微博 微信

Hao4K影音

[美剧] 黑水仙4k Black.Narcissus.S01.2160p.美剧下载

昨天 14:29 30598 7 |只看大图 回帖奖励 |倒序浏览 |阅读模式

大红色 楼主

2020-12-30 21:45:32

电视剧频道
电视剧封面:
电视剧名: 黑水仙4k
年  代: 2020  
国  家: 美国
类  别: 剧情 
语  言: 英语
字  幕: 英文原版
上映日期: 020-11-23
文件格式: mov    
视频效果: 4K(3840x2160)    
资源大小: 21.95 GB
片  长: 60 分钟
导  演: 夏洛特·布鲁斯·克里斯滕森
剧情简介: 《黑水仙》(Black Narcissus)是一部三集迷你剧,Amanda Coe负责撰写剧本,Tom Winchester担任执行制片人。故事根据Rumer Godden的经典小说改编,主题仍然为「性压抑」、「禁忌之爱」和「宗教信仰」,并且掺杂了「超自然现象」。在遥远的尼泊尔,Clodagh修女和她的女子修道院正尝试与当地人更融洽地生活,但Clodagh修女内心压抑已久的性欲却在此过程中被唤醒了。她被地产商Dean先生深深吸引,但他们的关系越是充满激情,就越预示着悲剧结局——因为Clodagh修女的禁忌之爱似乎映射了古老的尼泊尔公主Srimati的爱情悲剧。
黑水仙4k Black.Narcissus.S01.2160p.WEBRip.x265.10bit.HDR.HLG.DD5.1.美剧信息
  1. Video
  2. ID : 1
  3. Format : HEVC
  4. Format/Info : High Efficiency Video Coding
  5. Format profile : Main 10@L5.1@Main
  6. Codec ID : V_MPEGH/ISO/HEVC
  7. Duration : 54 min 5 s
  8. Bit rate : 18.4 Mb/s
  9. Width : 3 840 pixels
  10. Height : 2 160 pixels
  11. Display aspect ratio : 16:9
  12. Frame rate mode : Constant
  13. Frame rate : 25.000 FPS
  14. Standard : Component
  15. Color space : YUV
  16. Chroma subsampling : 4:2:0
  17. Bit depth : 10 bits
  18. Bits/(Pixel*Frame) : 0.089
  19. Stream size : 6.96 GiB (98%)
  20. Title : Black.Narcissus.S01E01.2160p.WEBRip.x265.10bit.HDR.HLG.DD5.1-SWTYBLZ
  21. Language : English
  22. Default : Yes
  23. Forced : No
  24. Color range : Limited
  25. Color primaries : BT.2020
  26. Transfer characteristics : HLG
  27. transfer_characteristics_Original : HLG / BT.2020 (10-bit)
  28. Matrix coefficients : BT.2020 non-constant

  29. Audio
  30. ID : 2
  31. Format : AC-3
  32. Format/Info : Audio Coding 3
  33. Commercial name : Dolby Digital
  34. Codec ID : A_AC3
  35. Duration : 54 min 1 s
  36. Bit rate mode : Constant
  37. Bit rate : 384 kb/s
  38. Channel(s) : 6 channels
  39. Channel layout : L R C LFE Ls Rs
  40. Sampling rate : 48.0 kHz
  41. Frame rate : 31.250 FPS (1536 SPF)
  42. Compression mode : Lossy
  43. Delay relative to video : 3 s 550 ms
  44. Stream size : 148 MiB (2%)
  45. Language : English
  46. Service kind : Complete Main
  47. Default : Yes
  48. Forced : No

  49. Text #1
  50. ID : 3
  51. Format : UTF-8
  52. Codec ID : S_TEXT/UTF8
  53. Codec ID/Info : UTF-8 Plain Text
  54. Duration : 51 min 57 s
  55. Bit rate : 57 b/s
  56. Count of elements : 627
  57. Stream size : 21.7 KiB (0%)
  58. Language : English
  59. Default : No
  60. Forced : No

  61. Text #2
  62. ID : 4
  63. Format : UTF-8
  64. Codec ID : S_TEXT/UTF8
  65. Codec ID/Info : UTF-8 Plain Text
  66. Duration : 53 min 20 s
  67. Bit rate : 58 b/s
  68. Count of elements : 716
  69. Stream size : 22.9 KiB (0%)
  70. Title : SDH
  71. Language : English
  72. Default : No
  73. Forced : No
复制代码

黑水仙4k Black.Narcissus.S01.2160p.WEBRip.x265.10bit.HDR.HLG.DD5.1.美剧下载

黑水仙4k Black.Narcissus.S01.2160p.WEBRip.x265.10bit.HDR.HLG.DD5.1【21.95 GB】
[Hao4k]黑水仙4k Black.Narcissus.S01.2160p.WEBRip.x265.10bit.HDR.HLG.DD5.1-SWTYBLZ.torrent (55.64 KB)
回复

使用道具 举报

全部回复7

cooltlz 发表于 2020-12-31 17:15:49

cooltlz 沙发

2020-12-31 17:15:49

看海报好暗黑的感觉哦  不知道好看不
回复 支持 反对

使用道具 举报

cherokee 发表于 2021-1-1 12:07:56

cherokee 板凳

2021-1-1 12:07:56

找了三版字幕都对不上,有好心人吗
回复 支持 反对

使用道具 举报

123zzy 发表于 2021-1-2 02:21:24

123zzy 地板

2021-1-2 02:21:24

cherokee 发表于 2021-1-1 12:07
找了三版字幕都对不上,有好心人吗

的确对不上
回复 支持 反对

使用道具 举报

powerc 发表于 2021-1-2 23:54:10

powerc 5#

2021-1-2 23:54:10

现有的字幕无法调制时间轴,等待大神出来!
回复 支持 反对

使用道具 举报

123zzy 发表于 2021-1-3 08:12:26 Hao4K手机版

123zzy 6#

2021-1-3 08:12:26

对,这个4k版的不是简单延迟或者提前的事
回复 支持 反对

使用道具 举报

世爵39 发表于 2021-1-11 08:32:38

世爵39 7#

2021-1-11 08:32:38

看海报好暗黑的感觉哦  不知道好看不
回复 支持 反对

使用道具 举报

123zzy 发表于 昨天 14:29 Hao4K手机版

123zzy 8#

昨天 14:29

我尝试根据英文版时间轴,用之前的字幕强行一个一个重新弄上去。第一集一共有640个左右的对话,才对到220行,想想就恶心
回复 支持 反对

使用道具 举报

   发表回复

您需要登录后才可以回帖 登录 | 立即注册

返回列表 本版积分规则

:
白银玩家
:
未填写

主题

帖子

积分931

图文推荐

  • 4K叶问系列第一部有些失望

    等这个系列的4k好久,昨天已经看了第一部,觉得差

  • 【新手教程】抛弃移动硬盘、直连电脑FTP服

    简单说下个人情况:电视55X9500G,没有NAS,

  • 一个90后的客厅4k庭影院

    从小就喜欢影音这些东西,刚接触的时候要从老式的

  • 通过实战教大家获得K币的有效方法

    总有人抱怨说K币不够用,每天签到获得一点点的K币

  • 芝杜x9s/魅视8702/电脑PC播放霍比特人三部

    霍比特人三部曲。这部电影从DVD时候就开始看,看

  • 在线客服

  • 返回顶部