微博 微信

Hao4K影音

[美剧] Earth.to.Ned.S01.2160p.美剧

2021-1-5 19:49:44 14936 2 |只看大图 回帖奖励 |倒序浏览 |阅读模式

大红色 楼主

2021-1-2 10:40:37

电视剧频道
电视剧封面:
电视剧名: Earth.to.Ned
年  代: 2020  
国  家: 美国
类  别: 喜剧 
语  言: 英语
字  幕: -
上映日期: 2020-09-04
文件格式: mkv    
视频效果:
资源大小: 24.99 GB
片  长: -
导  演: Adam Horowitz / Sierra Katow / Eddy Kitsis
剧情简介: Ned, a blue-skinned alien and his lieutenant Cornelius, who were sent to scout Earth for an eventual invasion - but instead became obsessed with our popular culture. Now, they host a talk show.
Earth.to.Ned.S01.2160p.DSNP.WEBRip.x265.10bit.HDR.DDP5.1.美剧信息
  1. Video
  2. ID : 1
  3. Format : HEVC
  4. Format/Info : High Efficiency Video Coding
  5. Format profile : Main 10@L5@High
  6. HDR format : SMPTE ST 2086, HDR10 compatible
  7. Codec ID : V_MPEGH/ISO/HEVC
  8. Duration : 22 min 30 s
  9. Bit rate : 15.7 Mb/s
  10. Width : 3 840 pixels
  11. Height : 2 160 pixels
  12. Display aspect ratio : 16:9
  13. Frame rate mode : Constant
  14. Frame rate : 23.976 (24000/1001) FPS
  15. Color space : YUV
  16. Chroma subsampling : 4:2:0
  17. Bit depth : 10 bits
  18. Bits/(Pixel*Frame) : 0.079
  19. Stream size : 2.46 GiB (95%)
  20. Default : Yes
  21. Forced : No
  22. Color range : Limited
  23. Color primaries : BT.2020
  24. Transfer characteristics : PQ
  25. Matrix coefficients : BT.2020 non-constant
  26. Mastering display color primaries : Display P3
  27. Mastering display luminance : min: 0.0000 cd/m2, max: 1000 cd/m2

  28. Audio
  29. ID : 2
  30. Format : E-AC-3 JOC
  31. Format/Info : Enhanced AC-3 with Joint Object Coding
  32. Commercial name : Dolby Digital Plus with Dolby Atmos
  33. Codec ID : A_EAC3
  34. Duration : 22 min 18 s
  35. Bit rate mode : Constant
  36. Bit rate : 768 kb/s
  37. Channel(s) : 6 channels
  38. Channel layout : L R C LFE Ls Rs
  39. Sampling rate : 48.0 kHz
  40. Frame rate : 31.250 FPS (1536 SPF)
  41. Compression mode : Lossy
  42. Stream size : 123 MiB (5%)
  43. Language : English
  44. Service kind : Complete Main
  45. Default : Yes
  46. Forced : No
  47. Complexity index : 16
  48. Number of dynamic objects : 15
  49. Bed channel count : 1 channel
  50. Bed channel configuration : LFE

  51. Text #1
  52. ID : 3
  53. Format : UTF-8
  54. Codec ID : S_TEXT/UTF8
  55. Codec ID/Info : UTF-8 Plain Text
  56. Duration : 22 min 6 s
  57. Bit rate : 81 b/s
  58. Count of elements : 279
  59. Stream size : 13.1 KiB (0%)
  60. Language : Danish
  61. Default : No
  62. Forced : No

  63. Text #2
  64. ID : 4
  65. Format : UTF-8
  66. Codec ID : S_TEXT/UTF8
  67. Codec ID/Info : UTF-8 Plain Text
  68. Duration : 22 min 4 s
  69. Bit rate : 88 b/s
  70. Count of elements : 406
  71. Stream size : 14.3 KiB (0%)
  72. Language : German
  73. Default : No
  74. Forced : No

  75. Text #3
  76. ID : 5
  77. Format : UTF-8
  78. Codec ID : S_TEXT/UTF8
  79. Codec ID/Info : UTF-8 Plain Text
  80. Duration : 21 min 5 s
  81. Bit rate : 113 b/s
  82. Count of elements : 460
  83. Stream size : 17.5 KiB (0%)
  84. Title : (SDH)
  85. Language : English
  86. Default : No
  87. Forced : No

  88. Text #4
  89. ID : 6
  90. Format : UTF-8
  91. Codec ID : S_TEXT/UTF8
  92. Codec ID/Info : UTF-8 Plain Text
  93. Duration : 22 min 6 s
  94. Bit rate : 83 b/s
  95. Count of elements : 421
  96. Stream size : 13.5 KiB (0%)
  97. Language : Finnish
  98. Default : No
  99. Forced : No

  100. Text #5
  101. ID : 7
  102. Format : UTF-8
  103. Codec ID : S_TEXT/UTF8
  104. Codec ID/Info : UTF-8 Plain Text
  105. Duration : 22 min 6 s
  106. Bit rate : 93 b/s
  107. Count of elements : 408
  108. Stream size : 15.2 KiB (0%)
  109. Language : French
  110. Default : No
  111. Forced : No

  112. Text #6
  113. ID : 8
  114. Format : UTF-8
  115. Codec ID : S_TEXT/UTF8
  116. Codec ID/Info : UTF-8 Plain Text
  117. Duration : 22 min 6 s
  118. Bit rate : 88 b/s
  119. Count of elements : 421
  120. Stream size : 14.4 KiB (0%)
  121. Language : Italian
  122. Default : No
  123. Forced : No

  124. Text #7
  125. ID : 9
  126. Format : UTF-8
  127. Codec ID : S_TEXT/UTF8
  128. Codec ID/Info : UTF-8 Plain Text
  129. Duration : 22 min 6 s
  130. Bit rate : 73 b/s
  131. Count of elements : 340
  132. Stream size : 11.9 KiB (0%)
  133. Language : Dutch
  134. Default : No
  135. Forced : No

  136. Text #8
  137. ID : 10
  138. Format : UTF-8
  139. Codec ID : S_TEXT/UTF8
  140. Codec ID/Info : UTF-8 Plain Text
  141. Duration : 22 min 6 s
  142. Bit rate : 90 b/s
  143. Count of elements : 421
  144. Stream size : 14.6 KiB (0%)
  145. Language : Norwegian
  146. Default : No
  147. Forced : No

  148. Text #9
  149. ID : 11
  150. Format : UTF-8
  151. Codec ID : S_TEXT/UTF8
  152. Codec ID/Info : UTF-8 Plain Text
  153. Duration : 22 min 6 s
  154. Bit rate : 78 b/s
  155. Count of elements : 415
  156. Stream size : 12.8 KiB (0%)
  157. Language : Polish
  158. Default : No
  159. Forced : No

  160. Text #10
  161. ID : 12
  162. Format : UTF-8
  163. Codec ID : S_TEXT/UTF8
  164. Codec ID/Info : UTF-8 Plain Text
  165. Duration : 22 min 6 s
  166. Bit rate : 87 b/s
  167. Count of elements : 421
  168. Stream size : 14.2 KiB (0%)
  169. Language : Portuguese
  170. Default : No
  171. Forced : No

  172. Text #11
  173. ID : 13
  174. Format : UTF-8
  175. Codec ID : S_TEXT/UTF8
  176. Codec ID/Info : UTF-8 Plain Text
  177. Duration : 22 min 6 s
  178. Bit rate : 92 b/s
  179. Count of elements : 421
  180. Stream size : 15.0 KiB (0%)
  181. Language : Spanish
  182. Default : No
  183. Forced : No

  184. Text #12
  185. ID : 14
  186. Format : UTF-8
  187. Codec ID : S_TEXT/UTF8
  188. Codec ID/Info : UTF-8 Plain Text
  189. Duration : 22 min 6 s
  190. Bit rate : 84 b/s
  191. Count of elements : 421
  192. Stream size : 13.7 KiB (0%)
  193. Language : Swedish
  194. Default : No
  195. Forced : No
复制代码

Earth.to.Ned.S01.2160p.DSNP.WEBRip.x265.10bit.HDR.DDP5.1.美剧下载

Earth.to.Ned.S01.2160p.DSNP.WEBRip.x265.10bit.HDR.DDP5.1【24.99 GB】
Earth.to.Ned.S01.2160p.DSNP.WEBRip.x265.10bit.HDR.DDP5.1-ROCCaT[rartv].torrent (63.83 KB)
回复

使用道具 举报

全部回复2

司徒壮壮 发表于 2021-1-3 12:40:23

司徒壮壮 沙发

2021-1-3 12:40:23

前排期待一下啊!!!谢谢楼主!
回复 支持 反对

使用道具 举报

   发表回复

您需要登录后才可以回帖 登录 | 立即注册

返回列表 本版积分规则

:
白银玩家
:
未填写

主题

帖子

积分949

图文推荐

  • 《比利林恩的中场战事》为数不多的原生60帧

    听说原片是120帧的,怀着很期待的心情看的一脸

  • 《The Lord of the Rings 魔戒》全新影集故

    Amazon早在多年前便宣布耗资 2亿5千万美元买下

  • 即将发布:核子航母遇险记4K UHD杜比视界蓝

    最新消息:1980年美国科幻冒险战争片《核子航母遇

  • 4K电影下载软件:uTorrent Pro高级破解版wi

    Mac/苹果电脑 μTorrent for Mac 3.3.2.30180 已

  • 个人的经验心得(一):媒体文件的储存

    论坛上的爱好者好多,很喜欢和大家交流一下经验,

  • 在线客服

  • 返回顶部