微博 微信

Hao4K影音

[美剧] 小小世界4k Tiny.World.S01.2160p.美剧纪录片下载

昨天 23:44 28297 11 |只看大图 回帖奖励 |倒序浏览 |阅读模式

大红色 楼主

2021-1-2 10:45:03

电视剧频道
电视剧封面:
电视剧名: 小小世界4k
年  代: 2020  
国  家: 美国
类  别: 纪录片 
语  言: 英语
字  幕: 英文原版
上映日期: 2020-10-02
文件格式: mkv    
视频效果: 4K(3840x2160)    
资源大小: 32.84 GB
片  长: 30 分钟
导  演: 汤姆·休
剧情简介: 该纪录影集由保罗·路德[ 蚁人 ]担任解说,以令人叹为观止的摄影技术,带领观众深入大自然,探索各种小型生物坚韧的生命力,见证这些鲜为人知的小英雄背后的故事。
小小世界4k Tiny.World.S01.2160p.ATVP.WEB-DL.x265.10bit.HDR.DDP5.1.Atmo.美剧纪录片信息
  1. Video
  2. ID : 1
  3. Format : HEVC
  4. Format/Info : High Efficiency Video Coding
  5. Format profile : Main 10@L5@High
  6. HDR format : SMPTE ST 2086, HDR10 compatible
  7. Codec ID : V_MPEGH/ISO/HEVC
  8. Duration : 32 min 54 s
  9. Bit rate : 24.4 Mb/s
  10. Width : 3 840 pixels
  11. Height : 2 160 pixels
  12. Display aspect ratio : 16:9
  13. Frame rate mode : Constant
  14. Frame rate : 23.976 (24000/1001) FPS
  15. Color space : YUV
  16. Chroma subsampling : 4:2:0 (Type 2)
  17. Bit depth : 10 bits
  18. Bits/(Pixel*Frame) : 0.123
  19. Stream size : 5.61 GiB (97%)
  20. Language : English
  21. Default : Yes
  22. Forced : No
  23. Color range : Limited
  24. Color primaries : BT.2020
  25. Transfer characteristics : PQ
  26. Matrix coefficients : BT.2020 non-constant
  27. Mastering display color primaries : Display P3
  28. Mastering display luminance : min: 0.0050 cd/m2, max: 1000 cd/m2
  29. Maximum Content Light Level : 2373 cd/m2
  30. Maximum Frame-Average Light Level : 341 cd/m2

  31. Audio
  32. ID : 2
  33. Format : E-AC-3 JOC
  34. Format/Info : Enhanced AC-3 with Joint Object Coding
  35. Commercial name : Dolby Digital Plus with Dolby Atmos
  36. Codec ID : A_EAC3
  37. Duration : 32 min 54 s
  38. Bit rate mode : Constant
  39. Bit rate : 768 kb/s
  40. Channel(s) : 6 channels
  41. Channel layout : L R C LFE Ls Rs
  42. Sampling rate : 48.0 kHz
  43. Frame rate : 31.250 FPS (1536 SPF)
  44. Compression mode : Lossy
  45. Stream size : 181 MiB (3%)
  46. Language : English
  47. Service kind : Complete Main
  48. Default : Yes
  49. Forced : No
  50. Complexity index : 16
  51. Number of dynamic objects : 15
  52. Bed channel count : 1 channel
  53. Bed channel configuration : LFE

  54. Text #1
  55. ID : 3
  56. Format : UTF-8
  57. Codec ID : S_TEXT/UTF8
  58. Codec ID/Info : UTF-8 Plain Text
  59. Duration : 31 min 41 s
  60. Bit rate : 31 b/s
  61. Count of elements : 205
  62. Stream size : 7.35 KiB (0%)
  63. Title : English
  64. Language : English
  65. Default : No
  66. Forced : No

  67. Text #2
  68. ID : 4
  69. Format : UTF-8
  70. Codec ID : S_TEXT/UTF8
  71. Codec ID/Info : UTF-8 Plain Text
  72. Duration : 31 min 41 s
  73. Bit rate : 34 b/s
  74. Count of elements : 248
  75. Stream size : 8.04 KiB (0%)
  76. Title : English (SDH)
  77. Language : English
  78. Default : No
  79. Forced : No

  80. Text #3
  81. ID : 5
  82. Format : UTF-8
  83. Codec ID : S_TEXT/UTF8
  84. Codec ID/Info : UTF-8 Plain Text
  85. Duration : 32 min 45 s
  86. Bit rate : 46 b/s
  87. Count of elements : 208
  88. Stream size : 11.2 KiB (0%)
  89. Title : العربية
  90. Language : Arabic
  91. Default : No
  92. Forced : No

  93. Text #4
  94. ID : 6
  95. Format : UTF-8
  96. Codec ID : S_TEXT/UTF8
  97. Codec ID/Info : UTF-8 Plain Text
  98. Duration : 32 min 45 s
  99. Bit rate : 53 b/s
  100. Count of elements : 208
  101. Stream size : 13.0 KiB (0%)
  102. Title : български
  103. Language : Bulgarian
  104. Default : No
  105. Forced : No

  106. Text #5
  107. ID : 7
  108. Format : UTF-8
  109. Codec ID : S_TEXT/UTF8
  110. Codec ID/Info : UTF-8 Plain Text
  111. Duration : 32 min 45 s
  112. Bit rate : 32 b/s
  113. Count of elements : 207
  114. Stream size : 7.88 KiB (0%)
  115. Title : Čeština
  116. Language : Czech
  117. Default : No
  118. Forced : No

  119. Text #6
  120. ID : 8
  121. Format : UTF-8
  122. Codec ID : S_TEXT/UTF8
  123. Codec ID/Info : UTF-8 Plain Text
  124. Duration : 32 min 45 s
  125. Bit rate : 32 b/s
  126. Count of elements : 204
  127. Stream size : 7.81 KiB (0%)
  128. Title : dansk
  129. Language : Danish
  130. Default : No
  131. Forced : No

  132. Text #7
  133. ID : 9
  134. Format : UTF-8
  135. Codec ID : S_TEXT/UTF8
  136. Codec ID/Info : UTF-8 Plain Text
  137. Duration : 32 min 46 s
  138. Bit rate : 38 b/s
  139. Count of elements : 233
  140. Stream size : 9.35 KiB (0%)
  141. Title : Deutsch
  142. Language : German
  143. Default : No
  144. Forced : No

  145. Text #8
  146. ID : 10
  147. Format : UTF-8
  148. Codec ID : S_TEXT/UTF8
  149. Codec ID/Info : UTF-8 Plain Text
  150. Duration : 32 min 45 s
  151. Bit rate : 60 b/s
  152. Count of elements : 209
  153. Stream size : 14.6 KiB (0%)
  154. Title : Ελληνικά
  155. Language : Greek
  156. Default : No
  157. Forced : No

  158. Text #9
  159. ID : 11
  160. Format : UTF-8
  161. Codec ID : S_TEXT/UTF8
  162. Codec ID/Info : UTF-8 Plain Text
  163. Duration : 32 min 46 s
  164. Bit rate : 36 b/s
  165. Count of elements : 222
  166. Stream size : 8.67 KiB (0%)
  167. Title : Español (España)
  168. Language : Spanish
  169. Default : No
  170. Forced : No

  171. Text #10
  172. ID : 12
  173. Format : UTF-8
  174. Codec ID : S_TEXT/UTF8
  175. Codec ID/Info : UTF-8 Plain Text
  176. Duration : 32 min 45 s
  177. Bit rate : 35 b/s
  178. Count of elements : 212
  179. Stream size : 8.50 KiB (0%)
  180. Title : Español (Latinoamérica)
  181. Language : Spanish
  182. Default : No
  183. Forced : No

  184. Text #11
  185. ID : 13
  186. Format : UTF-8
  187. Codec ID : S_TEXT/UTF8
  188. Codec ID/Info : UTF-8 Plain Text
  189. Duration : 32 min 45 s
  190. Bit rate : 30 b/s
  191. Count of elements : 205
  192. Stream size : 7.31 KiB (0%)
  193. Title : eesti
  194. Language : Estonian
  195. Default : No
  196. Forced : No

  197. Text #12
  198. ID : 14
  199. Format : UTF-8
  200. Codec ID : S_TEXT/UTF8
  201. Codec ID/Info : UTF-8 Plain Text
  202. Duration : 32 min 45 s
  203. Bit rate : 30 b/s
  204. Count of elements : 207
  205. Stream size : 7.31 KiB (0%)
  206. Title : Suomi
  207. Language : Finnish
  208. Default : No
  209. Forced : No

  210. Text #13
  211. ID : 15
  212. Format : UTF-8
  213. Codec ID : S_TEXT/UTF8
  214. Codec ID/Info : UTF-8 Plain Text
  215. Duration : 32 min 41 s
  216. Bit rate : 35 b/s
  217. Count of elements : 253
  218. Stream size : 8.55 KiB (0%)
  219. Title : Français (France)
  220. Language : French
  221. Default : No
  222. Forced : No

  223. Text #14
  224. ID : 16
  225. Format : UTF-8
  226. Codec ID : S_TEXT/UTF8
  227. Codec ID/Info : UTF-8 Plain Text
  228. Duration : 32 min 41 s
  229. Bit rate : 35 b/s
  230. Count of elements : 254
  231. Stream size : 8.56 KiB (0%)
  232. Title : Français (Canada)
  233. Language : French
  234. Default : No
  235. Forced : No

  236. Text #15
  237. ID : 17
  238. Format : UTF-8
  239. Codec ID : S_TEXT/UTF8
  240. Codec ID/Info : UTF-8 Plain Text
  241. Duration : 32 min 45 s
  242. Bit rate : 46 b/s
  243. Count of elements : 208
  244. Stream size : 11.1 KiB (0%)
  245. Title : עברית
  246. Language : Hebrew
  247. Default : No
  248. Forced : No

  249. Text #16
  250. ID : 18
  251. Format : UTF-8
  252. Codec ID : S_TEXT/UTF8
  253. Codec ID/Info : UTF-8 Plain Text
  254. Duration : 32 min 45 s
  255. Bit rate : 83 b/s
  256. Count of elements : 209
  257. Stream size : 19.9 KiB (0%)
  258. Title : हिन्दी
  259. Language : Hindi
  260. Default : No
  261. Forced : No

  262. Text #17
  263. ID : 19
  264. Format : UTF-8
  265. Codec ID : S_TEXT/UTF8
  266. Codec ID/Info : UTF-8 Plain Text
  267. Duration : 32 min 45 s
  268. Bit rate : 33 b/s
  269. Count of elements : 208
  270. Stream size : 8.07 KiB (0%)
  271. Title : magyar
  272. Language : Hungarian
  273. Default : No
  274. Forced : No

  275. Text #18
  276. ID : 20
  277. Format : UTF-8
  278. Codec ID : S_TEXT/UTF8
  279. Codec ID/Info : UTF-8 Plain Text
  280. Duration : 32 min 45 s
  281. Bit rate : 33 b/s
  282. Count of elements : 208
  283. Stream size : 8.05 KiB (0%)
  284. Title : Bahasa Indonesia
  285. Language : Indonesian
  286. Default : No
  287. Forced : No

  288. Text #19
  289. ID : 21
  290. Format : UTF-8
  291. Codec ID : S_TEXT/UTF8
  292. Codec ID/Info : UTF-8 Plain Text
  293. Duration : 32 min 47 s
  294. Bit rate : 35 b/s
  295. Count of elements : 209
  296. Stream size : 8.64 KiB (0%)
  297. Title : Italiano
  298. Language : Italian
  299. Default : No
  300. Forced : No

  301. Text #20
  302. ID : 22
  303. Format : UTF-8
  304. Codec ID : S_TEXT/UTF8
  305. Codec ID/Info : UTF-8 Plain Text
  306. Duration : 32 min 46 s
  307. Bit rate : 30 b/s
  308. Count of elements : 201
  309. Stream size : 7.21 KiB (0%)
  310. Title : 日本語
  311. Language : Japanese
  312. Default : No
  313. Forced : No

  314. Text #21
  315. ID : 23
  316. Format : UTF-8
  317. Codec ID : S_TEXT/UTF8
  318. Codec ID/Info : UTF-8 Plain Text
  319. Duration : 32 min 45 s
  320. Bit rate : 36 b/s
  321. Count of elements : 209
  322. Stream size : 8.65 KiB (0%)
  323. Title : 한국어
  324. Language : Korean
  325. Default : No
  326. Forced : No

  327. Text #22
  328. ID : 24
  329. Format : UTF-8
  330. Codec ID : S_TEXT/UTF8
  331. Codec ID/Info : UTF-8 Plain Text
  332. Duration : 32 min 45 s
  333. Bit rate : 33 b/s
  334. Count of elements : 208
  335. Stream size : 8.15 KiB (0%)
  336. Title : lietuvių
  337. Language : Lithuanian
  338. Default : No
  339. Forced : No

  340. Text #23
  341. ID : 25
  342. Format : UTF-8
  343. Codec ID : S_TEXT/UTF8
  344. Codec ID/Info : UTF-8 Plain Text
  345. Duration : 32 min 45 s
  346. Bit rate : 31 b/s
  347. Count of elements : 208
  348. Stream size : 7.67 KiB (0%)
  349. Title : latviešu
  350. Language : Latvian
  351. Default : No
  352. Forced : No

  353. Text #24
  354. ID : 26
  355. Format : UTF-8
  356. Codec ID : S_TEXT/UTF8
  357. Codec ID/Info : UTF-8 Plain Text
  358. Duration : 32 min 45 s
  359. Bit rate : 35 b/s
  360. Count of elements : 208
  361. Stream size : 8.57 KiB (0%)
  362. Title : Bahasa Melayu
  363. Language : Malay
  364. Default : No
  365. Forced : No

  366. Text #25
  367. ID : 27
  368. Format : UTF-8
  369. Codec ID : S_TEXT/UTF8
  370. Codec ID/Info : UTF-8 Plain Text
  371. Duration : 32 min 45 s
  372. Bit rate : 30 b/s
  373. Count of elements : 199
  374. Stream size : 7.36 KiB (0%)
  375. Title : Nederlands
  376. Language : Dutch
  377. Default : No
  378. Forced : No

  379. Text #26
  380. ID : 28
  381. Format : UTF-8
  382. Codec ID : S_TEXT/UTF8
  383. Codec ID/Info : UTF-8 Plain Text
  384. Duration : 32 min 45 s
  385. Bit rate : 30 b/s
  386. Count of elements : 201
  387. Stream size : 7.40 KiB (0%)
  388. Title : norsk
  389. Language : Norwegian
  390. Default : No
  391. Forced : No

  392. Text #27
  393. ID : 29
  394. Format : UTF-8
  395. Codec ID : S_TEXT/UTF8
  396. Codec ID/Info : UTF-8 Plain Text
  397. Duration : 32 min 45 s
  398. Bit rate : 32 b/s
  399. Count of elements : 209
  400. Stream size : 7.90 KiB (0%)
  401. Title : polski
  402. Language : Polish
  403. Default : No
  404. Forced : No

  405. Text #28
  406. ID : 30
  407. Format : UTF-8
  408. Codec ID : S_TEXT/UTF8
  409. Codec ID/Info : UTF-8 Plain Text
  410. Duration : 32 min 45 s
  411. Bit rate : 34 b/s
  412. Count of elements : 209
  413. Stream size : 8.25 KiB (0%)
  414. Title : Português
  415. Language : Portuguese
  416. Default : No
  417. Forced : No
复制代码

小小世界4k Tiny.World.S01.2160p.ATVP.WEB-DL.x265.10bit.HDR.DDP5.1.Atmo.美剧纪录片下载

小小世界4k Tiny.World.S01.2160p.ATVP.WEB-DL.x265.10bit.HDR.DDP5.1.Atmo【32.84 GB】
小小世界4k Tiny.World.S01.2160p.ATVP.WEB-DL.x265.10bit.HDR.DDP5.1.Atmos-KOGi[rar.torrent (83 KB)
回复

使用道具 举报

全部回复11

power8 发表于 2021-1-3 09:30:35

power8 板凳

2021-1-3 09:30:35

非常好的资源
大力支持
回复 支持 反对

使用道具 举报

flaking 发表于 2021-1-3 21:31:30

flaking 地板

2021-1-3 21:31:30

非常好的资源
回复 支持 反对

使用道具 举报

hzxiaoye 发表于 2021-1-3 22:36:13 Hao4K手机版

hzxiaoye 5#

2021-1-3 22:36:13

感谢分享 三个月才下的1080 现在又要洗版了
回复 支持 反对

使用道具 举报

f7anki3 发表于 2021-1-5 11:31:16

f7anki3 6#

2021-1-5 11:31:16

这个在家里的Apple TV 上看过了  很好看 ,论坛之前有  但不是HDR 的,这个可以下载。
回复 支持 反对

使用道具 举报

wchl1985 发表于 2021-1-6 03:54:17 Hao4K手机版

wchl1985 7#

2021-1-6 03:54:17

感谢分享这部神片。
回复 支持 反对

使用道具 举报

Chilli 发表于 2021-1-10 23:43:27

Chilli 8#

2021-1-10 23:43:27


感谢分享这部神片
回复 支持 反对

使用道具 举报

lorc2021 发表于 2021-1-14 07:56:39

lorc2021 10#

2021-1-14 07:56:39

感谢楼主分享,来之不易,希望有更多的免费资源!
回复 支持 反对

使用道具 举报

guojiazhen 发表于 昨天 23:44

guojiazhen 12#

昨天 23:44

谢谢 辛苦  斑竹了
回复 支持 反对

使用道具 举报

   发表回复

您需要登录后才可以回帖 登录 | 立即注册

返回列表 本版积分规则

:
白银玩家
:
未填写

主题

帖子

积分949

图文推荐

  • kodi无法刮削无法连接远程服务器

    kodi自带tmdb插件无法刮削解决办法: tmdb无法刮

  • 新手必读 : 购买4K播放机前你必须知道的4个

    相信很多朋友在选购4K高清蓝光播放机的时候有许多

  • 电脑PC播放UHD与BD真实屏摄对比之马戏之王

    看同志们对于HDR和SDR的争论灰常火爆,俺也来点上

  • 地下室7.1.2杜比全景声私人影院+私家花园背

    需求:业主比较喜欢欧式居家装修,想在地下室建设

  • 教你如何在4K电视上直接看群晖NAS里的4K原

    教你如何在4K电视上看群晖NAS里的4K原盘电影 下

  • 在线客服

  • 返回顶部