微博 微信

Hao4K影音

[美剧] Doug.Unplugs.S01.美剧下载

2021-1-2 22:15:01 6922 0 |只看大图 回帖奖励 |倒序浏览 |阅读模式

大红色 楼主

2021-1-2 22:15:01

电视剧频道
电视剧封面:
电视剧名: Doug.Unplugs
年  代: 2020  
国  家: 美国
类  别: 动画 
语  言: 英语
字  幕: 英文原版
上映日期: 2020-11-13
文件格式: mkv    
视频效果: 4K(3840x2160)    
资源大小: 27.55 GB
片  长: 11 分钟
导  演: Jim Nolan
剧情简介:  Hailing from DreamWorks Animation and based on Dan Yaccarino\'s "Doug Unplugged" book series, "Doug Unplugs" follows a young robot named Doug who senses there\'s more to life than just the facts. While other robots plug in for their daily download, curious Doug unplugs and journeys into the human world, and with his best friend Emma, experiences its wonders firsthand. "Doug Unplugs" is executive produced by Jim Nolan, Aliki Theofilopoulos and Dan Yaccarino, and stars the voice talents of Brandon James Cienfuegos, Kyrie McAlpin, Eric Bauza, Mae Whitman, Leslie David Baker and Becky Robinson.
Doug.Unplugs.S01.Part1.2160p.ATVP.WEB-DL.x265.10bit.HDR.DD5.1美剧信息
  1. Video
  2. ID : 1
  3. Format : HEVC
  4. Format/Info : High Efficiency Video Coding
  5. Format profile : Main 10@L5@High
  6. Codec ID : V_MPEGH/ISO/HEVC
  7. Duration : 23 min 7 s
  8. Bit rate : 20.4 Mb/s
  9. Width : 3 840 pixels
  10. Height : 2 160 pixels
  11. Display aspect ratio : 16:9
  12. Frame rate mode : Constant
  13. Frame rate : 23.976 (24000/1001) FPS
  14. Color space : YUV
  15. Chroma subsampling : 4:2:0
  16. Bit depth : 10 bits
  17. Bits/(Pixel*Frame) : 0.103
  18. Stream size : 3.30 GiB (98%)
  19. Language : English
  20. Default : Yes
  21. Forced : No
  22. Color range : Limited
  23. Color primaries : BT.709
  24. Transfer characteristics : BT.709
  25. Matrix coefficients : BT.709

  26. Audio
  27. ID : 2
  28. Format : AC-3
  29. Format/Info : Audio Coding 3
  30. Commercial name : Dolby Digital
  31. Codec ID : A_AC3
  32. Duration : 23 min 7 s
  33. Bit rate mode : Constant
  34. Bit rate : 384 kb/s
  35. Channel(s) : 6 channels
  36. Channel layout : L R C LFE Ls Rs
  37. Sampling rate : 48.0 kHz
  38. Frame rate : 31.250 FPS (1536 SPF)
  39. Compression mode : Lossy
  40. Stream size : 63.5 MiB (2%)
  41. Language : English
  42. Service kind : Complete Main
  43. Default : Yes
  44. Forced : No

  45. Text #1
  46. ID : 3
  47. Format : UTF-8
  48. Codec ID : S_TEXT/UTF8
  49. Codec ID/Info : UTF-8 Plain Text
  50. Duration : 22 min 50 s
  51. Bit rate : 81 b/s
  52. Count of elements : 416
  53. Stream size : 13.7 KiB (0%)
  54. Title : English
  55. Language : English
  56. Default : No
  57. Forced : No

  58. Text #2
  59. ID : 4
  60. Format : UTF-8
  61. Codec ID : S_TEXT/UTF8
  62. Codec ID/Info : UTF-8 Plain Text
  63. Duration : 22 min 50 s
  64. Bit rate : 96 b/s
  65. Count of elements : 467
  66. Stream size : 16.2 KiB (0%)
  67. Title : English (SDH)
  68. Language : English
  69. Default : No
  70. Forced : No
复制代码


Doug.Unplugs.S01.Part1.2160p.ATVP.WEB-DL.x265.10bit.HDR.DD5.1美剧下载

Doug.Unplugs.S01.Part1.2160p.ATVP.WEB-DL.x265.10bit.HDR.DD5.1【27.55 GB】
Doug.Unplugs.S01.Part1.2160p.ATVP.WEB-DL.x265.10bit.HDR.DD5.1-KOGi[rartv].torrent (69.87 KB)
回复

使用道具 举报

   发表回复

您需要登录后才可以回帖 登录 | 立即注册

返回列表 本版积分规则

:
白银玩家
:
未填写

主题

帖子

积分937

图文推荐

  • 即将发布:怪物猎人4K UHD蓝光原盘电影下载

    最新消息:经典游戏“怪物猎人”改编的同名电影《

  • 精华帖 电脑什么配置播放4K-8k最好?核显

    8月6日最新更新 最近配电脑打算用于娱乐

  • 带你了解4K 144Hz到底需要多少带宽

    要说这两年在外设产品中,显示器应该算是在性能上

  • 分享教你怎么将手机画面投屏到投影机上的方

    怎么将手机上的内容通过投影机投屏给家人一起看呢

  • 即将发布:疯狂原始人2 4K UHD 2160p蓝光原

    最新消息:疯狂原始人系列动画片续集《疯狂原始人

  • 在线客服

  • 返回顶部