微博 微信

Hao4K影音

[美剧] 神秘博士 第一季4k Doctor.Who.2005.S13E00.2160p.美剧下载

11 小时前 13349 4 |只看大图 回帖奖励 |倒序浏览 |阅读模式

大红色 楼主

2021-1-2 22:22:50

电视剧频道
电视剧封面:
电视剧名: 神秘博士 第一季4k
年  代: 00年代  
国  家: 英国
类  别: 科幻 冒险 剧情 
语  言: 英语
字  幕: 英文原版
上映日期:
文件格式: mkv    
视频效果: 4K(3840x2160)    
资源大小: 9.63 GB
片  长: -
导  演: Keith Boak / Joe Ahearne / James Hawes / Euros Lyn / Brian Grant
剧情简介: 《神秘博士》是一部由英国广播公司出品的长寿英国科幻电视剧。
  2005年版的第九任博士是忧郁的战争幸存者,经历了时之战争,他封印了他的种族和敌人戴立克,是唯一活下来的人。
  该剧讲述了名为“Doctor”(克里斯托弗·埃克莱斯顿 Christopher Eccleston 饰)的神秘外星时间旅行者,随着他的时空机器TARDIS的(Time And Relative Dimensions In Space)冒险故事,他的时空机器外观看上去像1950年代的警亭。博士带着他的伙伴罗斯(比莉·派佩 Billie Piper 饰)在时间、空间中探索悠游、打击邪恶力量、拯救文明、帮助人民、纠正错误、解决各类问题。
异世奇人 第一季 / 下一位博士 第一季 / 哪一位博士 第一季 / Dr. Who Season 1/神秘博士 第一季4k Doctor.Who.2005.S13E00.2160p.WEBRip.x265.10bit.HDR.HLG.DDP5.1.美剧信息
  1. Video
  2. ID : 1
  3. Format : HEVC
  4. Format/Info : High Efficiency Video Coding
  5. Format profile : Main 10@L5.1@Main
  6. Codec ID : V_MPEGH/ISO/HEVC
  7. Duration : 1 h 11 min
  8. Bit rate : 18.7 Mb/s
  9. Width : 3 840 pixels
  10. Height : 2 160 pixels
  11. Display aspect ratio : 16:9
  12. Frame rate mode : Constant
  13. Frame rate : 25.000 FPS
  14. Standard : Component
  15. Color space : YUV
  16. Chroma subsampling : 4:2:0
  17. Bit depth : 10 bits
  18. Bits/(Pixel*Frame) : 0.090
  19. Stream size : 9.31 GiB (97%)
  20. Language : English
  21. Default : Yes
  22. Forced : No
  23. Color range : Limited
  24. Color primaries : BT.2020
  25. Transfer characteristics : HLG
  26. transfer_characteristics_Original : HLG / BT.2020 (10-bit)
  27. Matrix coefficients : BT.2020 non-constant

  28. Audio
  29. ID : 4
  30. Format : E-AC-3
  31. Format/Info : Enhanced AC-3
  32. Commercial name : Dolby Digital Plus
  33. Codec ID : A_EAC3
  34. Duration : 1 h 11 min
  35. Bit rate mode : Constant
  36. Bit rate : 640 kb/s
  37. Channel(s) : 6 channels
  38. Channel layout : L R C LFE Ls Rs
  39. Sampling rate : 48.0 kHz
  40. Frame rate : 31.250 FPS (1536 SPF)
  41. Compression mode : Lossy
  42. Delay relative to video : 20 ms
  43. Stream size : 328 MiB (3%)
  44. Language : English
  45. Service kind : Complete Main
  46. Default : Yes
  47. Forced : No

  48. Text #1
  49. ID : 2
  50. Format : UTF-8
  51. Codec ID : S_TEXT/UTF8
  52. Codec ID/Info : UTF-8 Plain Text
  53. Duration : 1 h 10 min
  54. Bit rate : 67 b/s
  55. Count of elements : 1127
  56. Stream size : 34.7 KiB (0%)
  57. Language : English
  58. Default : No
  59. Forced : No

  60. Text #2
  61. ID : 3
  62. Format : UTF-8
  63. Codec ID : S_TEXT/UTF8
  64. Codec ID/Info : UTF-8 Plain Text
  65. Duration : 1 h 10 min
  66. Bit rate : 69 b/s
  67. Count of elements : 1205
  68. Stream size : 35.9 KiB (0%)
  69. Title : SDH
  70. Language : English
  71. Default : No
  72. Forced : No
复制代码

异世奇人 第一季 / 下一位博士 第一季 / 哪一位博士 第一季 / Dr. Who Season 1/神秘博士 第一季4k Doctor.Who.2005.S13E00.2160p.WEBRip.x265.10bit.HDR.HLG.DDP5.1.美剧下载

神秘博士 第一季4k Doctor.Who.2005.S13E00.2160p.WEBRip.x265.10bit.HDR.HLG.DDP5.1【9.63 GB】
[Hao4k]神秘博士 第一季4k Doctor.Who.2005.S13E00.2160p.WEBRip.x265.10bit.HDR.HLG..torrent (48.69 KB)
回复

使用道具 举报

全部回复4

初音 发表于 2021-1-6 13:35:44

初音 沙发

2021-1-6 13:35:44

这个都是第七季了吧?而且只有一集
回复 支持 反对

使用道具 举报

新起点2017 发表于 2021-1-7 11:16:22

新起点2017 板凳

2021-1-7 11:16:22

这是英国的神剧啊,也能有4K的,真是牛,力顶楼主。
回复 支持 反对

使用道具 举报

boluomiduo9999 发表于 昨天 16:51

boluomiduo9999 地板

昨天 16:51

资源不对吧
回复 支持 反对

使用道具 举报

dsbdjp 发表于 11 小时前

dsbdjp 5#

11 小时前

英国的神剧   楼主威武
回复 支持 反对

使用道具 举报

发表回复

您需要登录后才可以回帖 登录 | 立即注册

返回列表 本版积分规则

:
白银玩家
:
未填写

主题

帖子

积分925

图文推荐

  • 老枪4k原盘截图。比以前其他版本还是要好。

    老枪4k圆盘,效果还可以。比以前那些其他版本还是

  • 电视能显示共享的文件夹,但是不显示里边的

    在电脑上显示,共享后在电视上用KODI可以显示文件

  • 【求助】刚下的姜子牙播放时花屏

    如题 请问是片源问题还是我没设置好 谢谢

  • 分享投影机怎么看直播及CCTV央视频道的几种

    不知道大家发现没有很多直播APP都不能看CCTV央视

  • 拼多多买的索尼KD65寸9000H使用两个月不到

    索尼65寸 9000H使用两个月的情况: 开机特别快,

  • 在线客服

  • 返回顶部