微博 微信

Hao4K影音

[美剧] 成为你4k Becoming.You.S01.2160p.纪录片美剧下载

2021-1-2 22:26:35 11156 0 |只看大图 回帖奖励 |倒序浏览 |阅读模式

大红色 楼主

2021-1-2 22:26:35

电视剧频道
电视剧封面:
电视剧名: 成为你4k
年  代: 2020  
国  家: 美国
类  别: 纪录片 
语  言: 英语
字  幕: -
上映日期: 2020-11-13
文件格式: mkv    
视频效果: 4K(3840x2160)    
资源大小: 43.88 GB
片  长: 40 分钟
导  演: Tom Barbor-Might
剧情简介:  记录小朋友成长初期的故事
成为你4k Becoming.You.S01.2160p.ATVP.WEB-DL.x265.10bit.HDR.DDP5.1.Atmos.纪录片美剧信息
  1. Video
  2. ID : 1
  3. Format : HEVC
  4. Format/Info : High Efficiency Video Coding
  5. Format profile : Main 10@L5@High
  6. HDR format : SMPTE ST 2086, HDR10 compatible
  7. Codec ID : V_MPEGH/ISO/HEVC
  8. Duration : 43 min 52 s
  9. Bit rate : 24.1 Mb/s
  10. Width : 3 840 pixels
  11. Height : 2 160 pixels
  12. Display aspect ratio : 16:9
  13. Frame rate mode : Constant
  14. Frame rate : 23.976 (23976/1000) FPS
  15. Color space : YUV
  16. Chroma subsampling : 4:2:0 (Type 2)
  17. Bit depth : 10 bits
  18. Bits/(Pixel*Frame) : 0.121
  19. Stream size : 7.38 GiB (97%)
  20. Language : English
  21. Default : Yes
  22. Forced : No
  23. Color range : Limited
  24. Color primaries : BT.2020
  25. Transfer characteristics : PQ
  26. Matrix coefficients : BT.2020 non-constant
  27. Mastering display color primaries : BT.2020
  28. Mastering display luminance : min: 0.0050 cd/m2, max: 1000 cd/m2
  29. Maximum Content Light Level : 2208 cd/m2
  30. Maximum Frame-Average Light Level : 602 cd/m2

  31. Audio
  32. ID : 2
  33. Format : E-AC-3 JOC
  34. Format/Info : Enhanced AC-3 with Joint Object Coding
  35. Commercial name : Dolby Digital Plus with Dolby Atmos
  36. Codec ID : A_EAC3
  37. Duration : 43 min 52 s
  38. Bit rate mode : Constant
  39. Bit rate : 768 kb/s
  40. Channel(s) : 6 channels
  41. Channel layout : L R C LFE Ls Rs
  42. Sampling rate : 48.0 kHz
  43. Frame rate : 31.250 FPS (1536 SPF)
  44. Compression mode : Lossy
  45. Stream size : 241 MiB (3%)
  46. Language : English
  47. Service kind : Complete Main
  48. Default : Yes
  49. Forced : No
  50. Complexity index : 16
  51. Number of dynamic objects : 15
  52. Bed channel count : 1 channel
  53. Bed channel configuration : LFE

  54. Text #1
  55. ID : 3
  56. Format : UTF-8
  57. Codec ID : S_TEXT/UTF8
  58. Codec ID/Info : UTF-8 Plain Text
  59. Duration : 43 min 31 s
  60. Bit rate : 95 b/s
  61. Count of elements : 601
  62. Stream size : 30.5 KiB (0%)
  63. Language : Arabic
  64. Default : No
  65. Forced : No

  66. Text #2
  67. ID : 4
  68. Format : UTF-8
  69. Codec ID : S_TEXT/UTF8
  70. Codec ID/Info : UTF-8 Plain Text
  71. Duration : 43 min 31 s
  72. Bit rate : 99 b/s
  73. Count of elements : 543
  74. Stream size : 31.7 KiB (0%)
  75. Language : Bulgarian
  76. Default : No
  77. Forced : No

  78. Text #3
  79. ID : 5
  80. Format : UTF-8
  81. Codec ID : S_TEXT/UTF8
  82. Codec ID/Info : UTF-8 Plain Text
  83. Duration : 43 min 31 s
  84. Bit rate : 63 b/s
  85. Count of elements : 576
  86. Stream size : 20.2 KiB (0%)
  87. Language : Czech
  88. Default : No
  89. Forced : No

  90. Text #4
  91. ID : 6
  92. Format : UTF-8
  93. Codec ID : S_TEXT/UTF8
  94. Codec ID/Info : UTF-8 Plain Text
  95. Duration : 43 min 31 s
  96. Bit rate : 56 b/s
  97. Count of elements : 605
  98. Stream size : 17.9 KiB (0%)
  99. Language : Chinese
  100. Default : No
  101. Forced : No

  102. Text #5
  103. ID : 7
  104. Format : UTF-8
  105. Codec ID : S_TEXT/UTF8
  106. Codec ID/Info : UTF-8 Plain Text
  107. Duration : 43 min 31 s
  108. Bit rate : 64 b/s
  109. Count of elements : 587
  110. Stream size : 20.5 KiB (0%)
  111. Language : Danish
  112. Default : No
  113. Forced : No

  114. Text #6
  115. ID : 8
  116. Format : UTF-8
  117. Codec ID : S_TEXT/UTF8
  118. Codec ID/Info : UTF-8 Plain Text
  119. Duration : 43 min 31 s
  120. Bit rate : 61 b/s
  121. Count of elements : 578
  122. Stream size : 19.8 KiB (0%)
  123. Language : German
  124. Default : No
  125. Forced : No

  126. Text #7
  127. ID : 9
  128. Format : UTF-8
  129. Codec ID : S_TEXT/UTF8
  130. Codec ID/Info : UTF-8 Plain Text
  131. Duration : 43 min 31 s
  132. Bit rate : 113 b/s
  133. Count of elements : 602
  134. Stream size : 36.1 KiB (0%)
  135. Language : Greek
  136. Default : No
  137. Forced : No

  138. Text #8
  139. ID : 10
  140. Format : UTF-8
  141. Codec ID : S_TEXT/UTF8
  142. Codec ID/Info : UTF-8 Plain Text
  143. Duration : 42 min 53 s
  144. Bit rate : 65 b/s
  145. Count of elements : 563
  146. Stream size : 20.7 KiB (0%)
  147. Language : English
  148. Default : No
  149. Forced : No

  150. Text #9
  151. ID : 11
  152. Format : UTF-8
  153. Codec ID : S_TEXT/UTF8
  154. Codec ID/Info : UTF-8 Plain Text
  155. Duration : 43 min 31 s
  156. Bit rate : 60 b/s
  157. Count of elements : 559
  158. Stream size : 19.1 KiB (0%)
  159. Language : Estonian
  160. Default : No
  161. Forced : No

  162. Text #10
  163. ID : 12
  164. Format : UTF-8
  165. Codec ID : S_TEXT/UTF8
  166. Codec ID/Info : UTF-8 Plain Text
  167. Duration : 43 min 31 s
  168. Bit rate : 63 b/s
  169. Count of elements : 584
  170. Stream size : 20.2 KiB (0%)
  171. Language : Finnish
  172. Default : No
  173. Forced : No

  174. Text #11
  175. ID : 13
  176. Format : UTF-8
  177. Codec ID : S_TEXT/UTF8
  178. Codec ID/Info : UTF-8 Plain Text
  179. Duration : 43 min 31 s
  180. Bit rate : 66 b/s
  181. Count of elements : 590
  182. Stream size : 21.3 KiB (0%)
  183. Language : French
  184. Default : No
  185. Forced : No

  186. Text #12
  187. ID : 14
  188. Format : UTF-8
  189. Codec ID : S_TEXT/UTF8
  190. Codec ID/Info : UTF-8 Plain Text
  191. Duration : 43 min 31 s
  192. Bit rate : 82 b/s
  193. Count of elements : 604
  194. Stream size : 26.2 KiB (0%)
  195. Language : Hebrew
  196. Default : No
  197. Forced : No

  198. Text #13
  199. ID : 15
  200. Format : UTF-8
  201. Codec ID : S_TEXT/UTF8
  202. Codec ID/Info : UTF-8 Plain Text
  203. Duration : 43 min 31 s
  204. Bit rate : 149 b/s
  205. Count of elements : 605
  206. Stream size : 47.8 KiB (0%)
  207. Language : Hindi
  208. Default : No
  209. Forced : No

  210. Text #14
  211. ID : 16
  212. Format : UTF-8
  213. Codec ID : S_TEXT/UTF8
  214. Codec ID/Info : UTF-8 Plain Text
  215. Duration : 43 min 31 s
  216. Bit rate : 66 b/s
  217. Count of elements : 587
  218. Stream size : 21.1 KiB (0%)
  219. Language : Hungarian
  220. Default : No
  221. Forced : No

  222. Text #15
  223. ID : 17
  224. Format : UTF-8
  225. Codec ID : S_TEXT/UTF8
  226. Codec ID/Info : UTF-8 Plain Text
  227. Duration : 43 min 31 s
  228. Bit rate : 65 b/s
  229. Count of elements : 590
  230. Stream size : 20.8 KiB (0%)
  231. Language : Indonesian
  232. Default : No
  233. Forced : No

  234. Text #16
  235. ID : 18
  236. Format : UTF-8
  237. Codec ID : S_TEXT/UTF8
  238. Codec ID/Info : UTF-8 Plain Text
  239. Duration : 43 min 31 s
  240. Bit rate : 59 b/s
  241. Count of elements : 565
  242. Stream size : 18.8 KiB (0%)
  243. Language : Italian
  244. Default : No
  245. Forced : No

  246. Text #17
  247. ID : 19
  248. Format : UTF-8
  249. Codec ID : S_TEXT/UTF8
  250. Codec ID/Info : UTF-8 Plain Text
  251. Duration : 43 min 33 s
  252. Bit rate : 58 b/s
  253. Count of elements : 648
  254. Stream size : 18.7 KiB (0%)
  255. Language : Japanese
  256. Default : No
  257. Forced : No

  258. Text #18
  259. ID : 20
  260. Format : UTF-8
  261. Codec ID : S_TEXT/UTF8
  262. Codec ID/Info : UTF-8 Plain Text
  263. Duration : 43 min 31 s
  264. Bit rate : 67 b/s
  265. Count of elements : 604
  266. Stream size : 21.7 KiB (0%)
  267. Language : Korean
  268. Default : No
  269. Forced : No

  270. Text #19
  271. ID : 21
  272. Format : UTF-8
  273. Codec ID : S_TEXT/UTF8
  274. Codec ID/Info : UTF-8 Plain Text
  275. Duration : 43 min 31 s
  276. Bit rate : 66 b/s
  277. Count of elements : 602
  278. Stream size : 21.2 KiB (0%)
  279. Language : Latvian
  280. Default : No
  281. Forced : No

  282. Text #20
  283. ID : 22
  284. Format : UTF-8
  285. Codec ID : S_TEXT/UTF8
  286. Codec ID/Info : UTF-8 Plain Text
  287. Duration : 43 min 31 s
  288. Bit rate : 64 b/s
  289. Count of elements : 595
  290. Stream size : 20.6 KiB (0%)
  291. Language : Lithuanian
  292. Default : No
  293. Forced : No

  294. Text #21
  295. ID : 23
  296. Format : UTF-8
  297. Codec ID : S_TEXT/UTF8
  298. Codec ID/Info : UTF-8 Plain Text
  299. Duration : 43 min 31 s
  300. Bit rate : 68 b/s
  301. Count of elements : 590
  302. Stream size : 21.9 KiB (0%)
  303. Language : Malay
  304. Default : No
  305. Forced : No

  306. Text #22
  307. ID : 24
  308. Format : UTF-8
  309. Codec ID : S_TEXT/UTF8
  310. Codec ID/Info : UTF-8 Plain Text
  311. Duration : 43 min 31 s
  312. Bit rate : 56 b/s
  313. Count of elements : 555
  314. Stream size : 17.9 KiB (0%)
  315. Language : Dutch
  316. Default : No
  317. Forced : No

  318. Text #23
  319. ID : 25
  320. Format : UTF-8
  321. Codec ID : S_TEXT/UTF8
  322. Codec ID/Info : UTF-8 Plain Text
  323. Duration : 43 min 31 s
  324. Bit rate : 64 b/s
  325. Count of elements : 585
  326. Stream size : 20.5 KiB (0%)
  327. Language : Norwegian
  328. Default : No
  329. Forced : No

  330. Text #24
  331. ID : 26
  332. Format : UTF-8
  333. Codec ID : S_TEXT/UTF8
  334. Codec ID/Info : UTF-8 Plain Text
  335. Duration : 43 min 31 s
  336. Bit rate : 60 b/s
  337. Count of elements : 585
  338. Stream size : 19.4 KiB (0%)
  339. Language : Polish
  340. Default : No
  341. Forced : No

  342. Text #25
  343. ID : 27
  344. Format : UTF-8
  345. Codec ID : S_TEXT/UTF8
  346. Codec ID/Info : UTF-8 Plain Text
  347. Duration : 43 min 31 s
  348. Bit rate : 62 b/s
  349. Count of elements : 585
  350. Stream size : 20.1 KiB (0%)
  351. Language : Portuguese
  352. Default : No
  353. Forced : No

  354. Text #26
  355. ID : 28
  356. Format : UTF-8
  357. Codec ID : S_TEXT/UTF8
  358. Codec ID/Info : UTF-8 Plain Text
  359. Duration : 43 min 31 s
  360. Bit rate : 99 b/s
  361. Count of elements : 605
  362. Stream size : 31.7 KiB (0%)
  363. Language : Russian
  364. Default : No
  365. Forced : No

  366. Text #27
  367. ID : 29
  368. Format : UTF-8
  369. Codec ID : S_TEXT/UTF8
  370. Codec ID/Info : UTF-8 Plain Text
  371. Duration : 43 min 31 s
  372. Bit rate : 64 b/s
  373. Count of elements : 581
  374. Stream size : 20.5 KiB (0%)
  375. Language : Slovak
  376. Default : No
  377. Forced : No

  378. Text #28
  379. ID : 30
  380. Format : UTF-8
  381. Codec ID : S_TEXT/UTF8
  382. Codec ID/Info : UTF-8 Plain Text
  383. Duration : 43 min 31 s
  384. Bit rate : 57 b/s
  385. Count of elements : 593
  386. Stream size : 18.3 KiB (0%)
  387. Language : Slovenian
  388. Default : No
  389. Forced : No

  390. Text #29
  391. ID : 31
  392. Format : UTF-8
  393. Codec ID : S_TEXT/UTF8
  394. Codec ID/Info : UTF-8 Plain Text
  395. Duration : 43 min 31 s
  396. Bit rate : 65 b/s
  397. Count of elements : 575
  398. Stream size : 20.8 KiB (0%)
  399. Language : Spanish
  400. Default : No
  401. Forced : No

  402. Text #30
  403. ID : 32
  404. Format : UTF-8
  405. Codec ID : S_TEXT/UTF8
  406. Codec ID/Info : UTF-8 Plain Text
  407. Duration : 43 min 31 s
  408. Bit rate : 63 b/s
  409. Count of elements : 584
  410. Stream size : 20.2 KiB (0%)
  411. Language : Swedish
  412. Default : No
  413. Forced : No

  414. Text #31
  415. ID : 33
  416. Format : UTF-8
  417. Codec ID : S_TEXT/UTF8
  418. Codec ID/Info : UTF-8 Plain Text
  419. Duration : 43 min 31 s
  420. Bit rate : 175 b/s
  421. Count of elements : 604
  422. Stream size : 55.9 KiB (0%)
  423. Language : Tamil
  424. Default : No
  425. Forced : No

  426. Text #32
  427. ID : 34
  428. Format : UTF-8
  429. Codec ID : S_TEXT/UTF8
  430. Codec ID/Info : UTF-8 Plain Text
  431. Duration : 43 min 31 s
  432. Bit rate : 171 b/s
  433. Count of elements : 603
  434. Stream size : 54.8 KiB (0%)
  435. Language : Telugu
  436. Default : No
  437. Forced : No

  438. Text #33
  439. ID : 35
  440. Format : UTF-8
  441. Codec ID : S_TEXT/UTF8
  442. Codec ID/Info : UTF-8 Plain Text
  443. Duration : 43 min 31 s
  444. Bit rate : 142 b/s
  445. Count of elements : 603
  446. Stream size : 45.3 KiB (0%)
  447. Language : Thai
  448. Default : No
  449. Forced : No

  450. Text #34
  451. ID : 36
  452. Format : UTF-8
  453. Codec ID : S_TEXT/UTF8
  454. Codec ID/Info : UTF-8 Plain Text
  455. Duration : 43 min 31 s
  456. Bit rate : 69 b/s
  457. Count of elements : 593
  458. Stream size : 22.0 KiB (0%)
  459. Language : Turkish
  460. Default : No
  461. Forced : No

  462. Text #35
  463. ID : 37
  464. Format : UTF-8
  465. Codec ID : S_TEXT/UTF8
  466. Codec ID/Info : UTF-8 Plain Text
  467. Duration : 43 min 31 s
  468. Bit rate : 93 b/s
  469. Count of elements : 603
  470. Stream size : 29.7 KiB (0%)
  471. Language : Ukrainian
  472. Default : No
  473. Forced : No

  474. Text #36
  475. ID : 38
  476. Format : UTF-8
  477. Codec ID : S_TEXT/UTF8
  478. Codec ID/Info : UTF-8 Plain Text
  479. Duration : 43 min 31 s
  480. Bit rate : 76 b/s
  481. Count of elements : 595
  482. Stream size : 24.4 KiB (0%)
  483. Language : Vietnamese
  484. Default : No
  485. Forced : No
复制代码

成为你4k Becoming.You.S01.2160p.ATVP.WEB-DL.x265.10bit.HDR.DDP5.1.Atmos.纪录片美剧下载

成为你4k Becoming.You.S01.2160p.ATVP.WEB-DL.x265.10bit.HDR.DDP5.1.Atmos【43.88 GB】
[Hao4k]成为你4k Becoming.You.S01.2160p.ATVP.WEB-DL.x265.10bit.HDR.DDP5.1.Atmos-R.torrent (110.73 KB)
回复

使用道具 举报

发表回复

您需要登录后才可以回帖 登录 | 立即注册

返回列表 本版积分规则

:
白银玩家
:
未填写

主题

帖子

积分931

图文推荐

  • 各位的芝杜Z9X,网速能满速吗?

    家里新装修,选的千兆网,网线是6类线,光猫是HS8

  • 2021年,向那些逆势而上的影碟厂牌致敬

    影音技术的发展,流媒体的崛起,让曾经繁荣的DVD

  • 红米98英寸电视怎么样?红米98英寸体验测评

    98英寸液晶电视居然只要两万块钱!大仙早就想买了

  • 即将发布:怪物猎人4K UHD蓝光原盘电影下载

    最新消息:经典游戏“怪物猎人”改编的同名电影《

  • 海信80L9F 4K激光电视使用评测分享

    因为疫情的原因,现待在家的时间多了起来,尤其是

  • 在线客服

  • 返回顶部