微博 微信

Hao4K影音

[其他] 完美星球4k A.Perfect.Planet.S01E01.Volcano.2160p.纪录片下载

2021-1-7 15:52:49 106886 58 |只看大图 回帖奖励 |倒序浏览 |阅读模式

大红色 楼主

2021-1-5 15:54:24

电视剧频道
电视剧封面:
电视剧名: 完美星球4k
年  代: 2020  
国  家: 大陆
类  别: 纪录片 
语  言: 英语
字  幕: -
上映日期: 2021-01-04
文件格式: mkv    
视频效果: 4K(3840x2160)    
资源大小: Movies/TV-UHD-episodes Size: 7.96 GB
片  长: 60 分钟
导  演: 大卫·爱登堡
剧情简介: 《完美星球》是一部与地球科学巧妙结合的蓝筹自然历史纪录片,它揭示了我们所生存的这颗星球的运转规则。 这部纪录片共分为五集,展示了自然力量如何推动、塑造和维持地球生物的多样性,前四集分别探索了火山、 阳光、天气和海洋的力量,最后一集则着眼于新兴的自然力量:人类,揭示了人类对地球造成的巨大影响以及如何恢复地球完美的生态平衡。
  从印度雨季潮湿的土地到夏威夷火山炽热的山坡;从巴哈马的潮汐岛屿到冰天雪地的埃尔斯米尔岛;从冬夜郊外嚎叫的北极狼群到春季结冰的身体慢慢融化的木蛙;从加拉帕戈斯群岛以吸食海鸟鲜血解渴的吸血地雀,到每年成群结队聚集在火山湖中繁殖的非洲小红鹳,《完美星球》将带领我们踏上一场无与伦比的视觉之旅。
  这部纪录片将改变我们看待自然家园的方式。我们将一次又一次地见证地球所具有的强大自然力量是如何孕育生命的。
完美星球4k A.Perfect.Planet.S01E01.Volcano.2160p.WEBRip.x265.10bit.HDR.HLG.DDP5.1.纪录片信息
  1. Video
  2. ID : 1
  3. Format : HEVC
  4. Format/Info : High Efficiency Video Coding
  5. Format profile : Main 10@L5.1@Main
  6. Codec ID : V_MPEGH/ISO/HEVC
  7. Duration : 59 min 9 s
  8. Bit rate : 18.6 Mb/s
  9. Width : 3 840 pixels
  10. Height : 2 160 pixels
  11. Display aspect ratio : 16:9
  12. Frame rate mode : Constant
  13. Frame rate : 25.000 FPS
  14. Standard : Component
  15. Color space : YUV
  16. Chroma subsampling : 4:2:0
  17. Bit depth : 10 bits
  18. Bits/(Pixel*Frame) : 0.090
  19. Stream size : 7.70 GiB (97%)
  20. Default : Yes
  21. Forced : No
  22. Color range : Limited
  23. Color primaries : BT.2020
  24. Transfer characteristics : HLG
  25. transfer_characteristics_Original : HLG / BT.2020 (10-bit)
  26. Matrix coefficients : BT.2020 non-constant

  27. Audio
  28. ID : 2
  29. Format : E-AC-3
  30. Format/Info : Enhanced AC-3
  31. Commercial name : Dolby Digital Plus
  32. Codec ID : A_EAC3
  33. Duration : 58 min 27 s
  34. Bit rate mode : Constant
  35. Bit rate : 640 kb/s
  36. Channel(s) : 6 channels
  37. Channel layout : L R C LFE Ls Rs
  38. Sampling rate : 48.0 kHz
  39. Frame rate : 31.250 FPS (1536 SPF)
  40. Compression mode : Lossy
  41. Delay relative to video : 28 ms
  42. Stream size : 268 MiB (3%)
  43. Language : English
  44. Service kind : Complete Main
  45. Default : Yes
  46. Forced : No

  47. Text #1
  48. ID : 3
  49. Format : UTF-8
  50. Codec ID : S_TEXT/UTF8
  51. Codec ID/Info : UTF-8 Plain Text
  52. Duration : 58 min 3 s
  53. Bit rate : 48 b/s
  54. Count of elements : 513
  55. Stream size : 20.5 KiB (0%)
  56. Language : English
  57. Default : No
  58. Forced : No

  59. Text #2
  60. ID : 4
  61. Format : UTF-8
  62. Codec ID : S_TEXT/UTF8
  63. Codec ID/Info : UTF-8 Plain Text
  64. Duration : 58 min 3 s
  65. Bit rate : 50 b/s
  66. Count of elements : 567
  67. Stream size : 21.6 KiB (0%)
  68. Title : SDH
  69. Language : English
  70. Default : No
  71. Forced : No
复制代码

完美星球4k A.Perfect.Planet.S01E01.Volcano.2160p.WEBRip.x265.10bit.HDR.HLG.DDP5.1.纪录片下载

完美星球4k A.Perfect.Planet.S01E01.Volcano.2160p.WEBRip.x265.10bit.HDR.HLG.DDP5.1【7.96 GB】
[Hao4k]完美星球4k A.Perfect.Planet.S01E01.Volcano.2160p.WEBRip.x265.10bit.HDR.HL.torrent (40.4 KB)

完美星球4k A.Perfect.Planet.S01E02.HLG.2160p.WEB.H265【7.66 GB】
[Hao4k]完美星球4k A.Perfect.Planet.S01E02.HLG.2160p.WEB.H265-GLHF[rartv].torrent (38.82 KB)

完美星球4k A.Perfect.Planet.S01E03.HLG.2160p.WEB.H265【7.59 GB】
[Hao4k]完美星球4k A.Perfect.Planet.S01E03.HLG.2160p.WEB.H265-GLHF[rartv].torrent (38.49 KB)

完美星球4k A.Perfect.Planet.S01E04.HLG.2160p.WEB.H265【7.68 GB】
[Hao4k]完美星球4k A.Perfect.Planet.S01E04.HLG.2160p.WEB.H265-GLHF[rartv].torrent (38.94 KB)

完美星球4k A.Perfect.Planet.S01E05.HLG.2160p.WEB.H265【7.63 GB】
[Hao4k]完美星球4k A.Perfect.Planet.S01E05.HLG.2160p.WEB.H265-GLHF[rartv] (1).torrent (38.67 KB)

完美星球4K中英双语字幕下载 感谢K友@苏默金武分享的字幕
https://www.hao4k.cn/thread-53171-1-1.html
分享到:  QQ好友和群QQ好友和群
回复

使用道具 举报

推荐
曾经年轻 发表于 2021-1-5 19:49:19

曾经年轻 推荐

2021-1-5 19:49:19

感谢楼主无私分享        
回复 支持 反对

使用道具 举报

推荐
新起点2017 发表于 2021-1-7 10:02:19

新起点2017 推荐

2021-1-7 10:02:19

这个片子有普通话版的,希望楼主也能找到发布,多谢多谢
回复 支持 反对

使用道具 举报

地板
opkqq00 发表于 2021-1-5 18:26:26

opkqq00 地板

2021-1-5 18:26:26

非常感谢楼主分享
回复 支持 反对

使用道具 举报

5#
火舞耀扬819 发表于 2021-1-6 08:16:58

火舞耀扬819 5#

2021-1-6 08:16:58

这是好片,必须下。非常感谢楼主
回复 支持 反对

使用道具 举报

11#
123zzy 发表于 2021-1-6 11:28:44 Hao4K手机版

123zzy 11#

2021-1-6 11:28:44

等一个中文字幕
回复 支持 反对

使用道具 举报

12#
不下火线 发表于 2021-1-6 11:36:06

不下火线 12#

2021-1-6 11:36:06

好片子啊!就喜欢这样的纪录大片。多谢楼主分享
回复 支持 反对

使用道具 举报

14#
fishless 发表于 2021-1-6 20:25:34

fishless 14#

2021-1-6 20:25:34

谢谢分享,喜欢爱登堡的纪录片。
回复 支持 反对

使用道具 举报

15#
w630758336 发表于 2021-1-7 07:28:24

w630758336 15#

2021-1-7 07:28:24

请问一下,HDR只有第一集的片源吗?
回复 支持 反对

使用道具 举报

16#
yltanghui 发表于 2021-1-7 11:44:29

yltanghui 16#

2021-1-7 11:44:29

求《完美星球》4K纪录片字幕
回复 支持 反对

使用道具 举报

17#
alantao777 发表于 2021-1-7 13:15:35

alantao777 17#

2021-1-7 13:15:35

等一个中文字幕
回复 支持 反对

使用道具 举报

18#
r31325 发表于 2021-1-7 15:52:49

r31325 18#

2021-1-7 15:52:49

完美的大片,感谢!
回复 支持 反对

使用道具 举报

   发表回复

您需要登录后才可以回帖 登录 | 立即注册

返回列表 本版积分规则

:
白银玩家
:
未填写

主题

帖子

积分937

图文推荐

  • 即将发布:怪物猎人4K UHD蓝光原盘电影下载

    最新消息:经典游戏“怪物猎人”改编的同名电影《

  • 精华帖 电脑什么配置播放4K-8k最好?核显

    8月6日最新更新 最近配电脑打算用于娱乐

  • 带你了解4K 144Hz到底需要多少带宽

    要说这两年在外设产品中,显示器应该算是在性能上

  • 分享教你怎么将手机画面投屏到投影机上的方

    怎么将手机上的内容通过投影机投屏给家人一起看呢

  • 即将发布:疯狂原始人2 4K UHD 2160p蓝光原

    最新消息:疯狂原始人系列动画片续集《疯狂原始人

  • 在线客服

  • 返回顶部