微博 微信

Hao4K影音

[美剧] 眼镜蛇 第三季4k Cobra.Kai.S03.2160p.美剧下载

2021-1-10 15:10:01 12974 3 |只看大图 回帖奖励 |倒序浏览 |阅读模式

大红色 楼主

2021-1-5 16:17:42

电视剧频道
电视剧封面:
电视剧名: 眼镜蛇 第三季4k
年  代:
国  家: 美国
类  别: 动作 剧情 喜剧 
语  言: 英语
字  幕: -
上映日期: 2021-01-01
文件格式: mkv    
视频效果: 4K(3840x2160)    
资源大小: 48.51 GB
片  长: -
导  演: 乔什·贺德 / 乔恩·赫维兹 / 海登·施拉兹伯格
剧情简介: 经典功夫喜剧系列电影《龙威小子》故事未完,YouTube meijubar.net Red 打造续集影集《Cobra Kai》正式预告上线。34 年前在《龙威小子2》展开世纪对决的丹尼尔与强尼,时隔多年将再度交手,当时饰演两人的雷夫·马奇欧(Ralph Macchio)与威廉·萨巴卡(William Zabka)回归演出相同角色。
眼镜蛇道馆/眼镜蛇 第三季4k Cobra.Kai.S03.2160p.NF.WEBRip.DDP5.1.x265.美剧信息
  1. Video
  2. ID : 1
  3. Format : HEVC
  4. Format/Info : High Efficiency Video Coding
  5. Format profile : Main 10@L5.1@High
  6. Codec ID : V_MPEGH/ISO/HEVC
  7. Duration : 41 min 0 s
  8. Bit rate : 24.0 Mb/s
  9. Width : 3 840 pixels
  10. Height : 2 160 pixels
  11. Display aspect ratio : 16:9
  12. Frame rate mode : Constant
  13. Frame rate : 23.976 (24000/1001) FPS
  14. Color space : YUV
  15. Chroma subsampling : 4:2:0
  16. Bit depth : 10 bits
  17. Bits/(Pixel*Frame) : 0.121
  18. Stream size : 6.89 GiB (97%)
  19. Writing library : x265 3.4+26-ga82c6c7a7:[Windows][GCC 10.2.1][64 bit] 10bit
  20. Encoding settings : cpuid=1111039 / frame-threads=4 / numa-pools=16 / wpp / no-pmode / no-pme / no-psnr / no-ssim / log-level=2 / input-csp=1 / input-res=3840x2160 / interlace=0 / total-frames=59004 / level-idc=51 / high-tier=1 / uhd-bd=0 / ref=5 / no-allow-non-conformance / repeat-headers / annexb / aud / hrd / info / hash=0 / no-temporal-layers / open-gop / min-keyint=23 / keyint=250 / gop-lookahead=0 / bframes=8 / b-adapt=2 / b-pyramid / bframe-bias=0 / rc-lookahead=40 / lookahead-slices=8 / scenecut=40 / hist-scenecut=0 / radl=0 / no-splice / no-intra-refresh / ctu=64 / min-cu-size=8 / no-rect / no-amp / max-tu-size=32 / tu-inter-depth=4 / tu-intra-depth=4 / limit-tu=4 / rdoq-level=0 / dynamic-rd=0.00 / no-ssim-rd / signhide / no-tskip / nr-intra=0 / nr-inter=0 / no-constrained-intra / strong-intra-smoothing / max-merge=4 / limit-refs=1 / no-limit-modes / me=1 / subme=5 / merange=57 / temporal-mvp / no-frame-dup / no-hme / weightp / weightb / no-analyze-src-pics / deblock=-3:-3 / no-sao / no-sao-non-deblock / rd=4 / selective-sao=0 / early-skip / rskip / no-fast-intra / no-tskip-fast / no-cu-lossless / b-intra / no-splitrd-skip / rdpenalty=0 / psy-rd=2.00 / psy-rdoq=0.00 / no-rd-refine / no-lossless / cbqpoffs=0 / crqpoffs=0 / rc=crf / crf=19.0 / qcomp=0.60 / qpstep=4 / stats-write=0 / stats-read=0 / vbv-maxrate=160000 / vbv-bufsize=160000 / vbv-init=0.9 / min-vbv-fullness=50.0 / max-vbv-fullness=80.0 / crf-max=0.0 / crf-min=0.0 / ipratio=1.30 / pbratio=1.20 / aq-mode=1 / aq-strength=0.80 / no-cutree / zone-count=0 / no-strict-cbr / qg-size=32 / no-rc-grain / qpmax=69 / qpmin=0 / no-const-vbv / sar=1 / overscan=0 / videoformat=5 / range=0 / colorprim=1 / transfer=1 / colormatrix=1 / chromaloc=0 / display-window=0 / cll=0,0 / min-luma=0 / max-luma=1023 / log2-max-poc-lsb=8 / vui-timing-info / vui-hrd-info / slices=1 / no-opt-qp-pps / no-opt-ref-list-length-pps / no-multi-pass-opt-rps / scenecut-bias=0.05 / hist-threshold=0.03 / no-opt-cu-delta-qp / no-aq-motion / no-hdr10 / no-hdr10-opt / no-dhdr10-opt / no-idr-recovery-sei / analysis-reuse-level=0 / analysis-save-reuse-level=0 / analysis-load-reuse-level=0 / scale-factor=0 / refine-intra=0 / refine-inter=0 / refine-mv=1 / refine-ctu-distortion=0 / no-limit-sao / ctu-info=0 / no-lowpass-dct / refine-analysis-type=0 / copy-pic=1 / max-ausize-factor=1.0 / no-dynamic-refine / no-single-sei / no-hevc-aq / no-svt / no-field / qp-adaptation-range=1.00 / no-scenecut-aware-qpconformance-window-offsets / right=0 / bottom=0 / decoder-max-rate=0 / no-vbv-live-multi-pass
  21. Default : Yes
  22. Forced : No
  23. Color range : Limited
  24. Color primaries : BT.709
  25. Transfer characteristics : BT.709
  26. Matrix coefficients : BT.709

  27. Audio
  28. ID : 2
  29. Format : E-AC-3
  30. Format/Info : Enhanced AC-3
  31. Commercial name : Dolby Digital Plus
  32. Codec ID : A_EAC3
  33. Duration : 41 min 1 s
  34. Bit rate mode : Constant
  35. Bit rate : 640 kb/s
  36. Channel(s) : 6 channels
  37. Channel layout : L R C LFE Ls Rs
  38. Sampling rate : 48.0 kHz
  39. Frame rate : 31.250 FPS (1536 SPF)
  40. Compression mode : Lossy
  41. Stream size : 188 MiB (3%)
  42. Language : English
  43. Service kind : Complete Main
  44. Default : Yes
  45. Forced : No

  46. Text #1
  47. ID : 3
  48. Format : UTF-8
  49. Codec ID : S_TEXT/UTF8
  50. Codec ID/Info : UTF-8 Plain Text
  51. Duration : 37 min 50 s
  52. Bit rate : 56 b/s
  53. Count of elements : 515
  54. Stream size : 15.8 KiB (0%)
  55. Title : SDH
  56. Language : English
  57. Default : No
  58. Forced : No

  59. Text #2
  60. ID : 4
  61. Format : UTF-8
  62. Codec ID : S_TEXT/UTF8
  63. Codec ID/Info : UTF-8 Plain Text
  64. Duration : 39 min 24 s
  65. Bit rate : 71 b/s
  66. Count of elements : 398
  67. Stream size : 20.5 KiB (0%)
  68. Language : Arabic
  69. Default : No
  70. Forced : No

  71. Text #3
  72. ID : 5
  73. Format : UTF-8
  74. Codec ID : S_TEXT/UTF8
  75. Codec ID/Info : UTF-8 Plain Text
  76. Duration : 39 min 21 s
  77. Bit rate : 40 b/s
  78. Count of elements : 393
  79. Stream size : 11.6 KiB (0%)
  80. Language : Czech
  81. Default : No
  82. Forced : No

  83. Text #4
  84. ID : 6
  85. Format : UTF-8
  86. Codec ID : S_TEXT/UTF8
  87. Codec ID/Info : UTF-8 Plain Text
  88. Duration : 39 min 25 s
  89. Bit rate : 40 b/s
  90. Count of elements : 378
  91. Stream size : 11.6 KiB (0%)
  92. Language : Danish
  93. Default : No
  94. Forced : No

  95. Text #5
  96. ID : 7
  97. Format : UTF-8
  98. Codec ID : S_TEXT/UTF8
  99. Codec ID/Info : UTF-8 Plain Text
  100. Duration : 39 min 25 s
  101. Bit rate : 41 b/s
  102. Count of elements : 395
  103. Stream size : 11.9 KiB (0%)
  104. Language : German
  105. Default : No
  106. Forced : No

  107. Text #6
  108. ID : 8
  109. Format : UTF-8
  110. Codec ID : S_TEXT/UTF8
  111. Codec ID/Info : UTF-8 Plain Text
  112. Duration : 39 min 21 s
  113. Bit rate : 71 b/s
  114. Count of elements : 439
  115. Stream size : 20.7 KiB (0%)
  116. Language : Greek
  117. Default : No
  118. Forced : No

  119. Text #7
  120. ID : 9
  121. Format : UTF-8
  122. Codec ID : S_TEXT/UTF8
  123. Codec ID/Info : UTF-8 Plain Text
  124. Duration : 39 min 25 s
  125. Bit rate : 40 b/s
  126. Count of elements : 401
  127. Stream size : 11.7 KiB (0%)
  128. Language : Spanish
  129. Default : No
  130. Forced : No

  131. Text #8
  132. ID : 10
  133. Format : UTF-8
  134. Codec ID : S_TEXT/UTF8
  135. Codec ID/Info : UTF-8 Plain Text
  136. Duration : 39 min 25 s
  137. Bit rate : 40 b/s
  138. Count of elements : 407
  139. Stream size : 11.7 KiB (0%)
  140. Title : European
  141. Language : Spanish
  142. Default : No
  143. Forced : No

  144. Text #9
  145. ID : 11
  146. Format : UTF-8
  147. Codec ID : S_TEXT/UTF8
  148. Codec ID/Info : UTF-8 Plain Text
  149. Duration : 39 min 24 s
  150. Bit rate : 37 b/s
  151. Count of elements : 366
  152. Stream size : 10.8 KiB (0%)
  153. Language : Finnish
  154. Default : No
  155. Forced : No

  156. Text #10
  157. ID : 12
  158. Format : UTF-8
  159. Codec ID : S_TEXT/UTF8
  160. Codec ID/Info : UTF-8 Plain Text
  161. Duration : 39 min 20 s
  162. Bit rate : 39 b/s
  163. Count of elements : 383
  164. Stream size : 11.3 KiB (0%)
  165. Language : French
  166. Default : No
  167. Forced : No

  168. Text #11
  169. ID : 13
  170. Format : UTF-8
  171. Codec ID : S_TEXT/UTF8
  172. Codec ID/Info : UTF-8 Plain Text
  173. Duration : 39 min 21 s
  174. Bit rate : 66 b/s
  175. Count of elements : 421
  176. Stream size : 19.2 KiB (0%)
  177. Language : Hebrew
  178. Default : No
  179. Forced : No

  180. Text #12
  181. ID : 14
  182. Format : UTF-8
  183. Codec ID : S_TEXT/UTF8
  184. Codec ID/Info : UTF-8 Plain Text
  185. Duration : 39 min 25 s
  186. Bit rate : 39 b/s
  187. Count of elements : 396
  188. Stream size : 11.3 KiB (0%)
  189. Language : Croatian
  190. Default : No
  191. Forced : No

  192. Text #13
  193. ID : 15
  194. Format : UTF-8
  195. Codec ID : S_TEXT/UTF8
  196. Codec ID/Info : UTF-8 Plain Text
  197. Duration : 39 min 23 s
  198. Bit rate : 44 b/s
  199. Count of elements : 380
  200. Stream size : 12.7 KiB (0%)
  201. Language : Hungarian
  202. Default : No
  203. Forced : No

  204. Text #14
  205. ID : 16
  206. Format : UTF-8
  207. Codec ID : S_TEXT/UTF8
  208. Codec ID/Info : UTF-8 Plain Text
  209. Duration : 39 min 21 s
  210. Bit rate : 39 b/s
  211. Count of elements : 397
  212. Stream size : 11.4 KiB (0%)
  213. Language : Indonesian
  214. Default : No
  215. Forced : No

  216. Text #15
  217. ID : 17
  218. Format : UTF-8
  219. Codec ID : S_TEXT/UTF8
  220. Codec ID/Info : UTF-8 Plain Text
  221. Duration : 39 min 22 s
  222. Bit rate : 38 b/s
  223. Count of elements : 403
  224. Stream size : 11.1 KiB (0%)
  225. Language : Italian
  226. Default : No
  227. Forced : No

  228. Text #16
  229. ID : 18
  230. Format : UTF-8
  231. Codec ID : S_TEXT/UTF8
  232. Codec ID/Info : UTF-8 Plain Text
  233. Duration : 39 min 25 s
  234. Bit rate : 41 b/s
  235. Count of elements : 432
  236. Stream size : 12.1 KiB (0%)
  237. Language : Japanese
  238. Default : No
  239. Forced : No

  240. Text #17
  241. ID : 19
  242. Format : UTF-8
  243. Codec ID : S_TEXT/UTF8
  244. Codec ID/Info : UTF-8 Plain Text
  245. Duration : 39 min 24 s
  246. Bit rate : 52 b/s
  247. Count of elements : 399
  248. Stream size : 15.2 KiB (0%)
  249. Language : Korean
  250. Default : No
  251. Forced : No
复制代码

眼镜蛇道馆/眼镜蛇 第三季4k Cobra.Kai.S03.2160p.NF.WEBRip.DDP5.1.x265.美剧下载

眼镜蛇 第三季4k Cobra.Kai.S03.2160p.NF.WEBRip.DDP5.1.x265【48.51 GB】
[Hao4k]眼镜蛇 第三季4k Cobra.Kai.S03.2160p.NF.WEBRip.DDP5.1.x265-NTb[rartv].torrent (122.71 KB)
回复

使用道具 举报

全部回复3

w912345 发表于 2021-1-5 23:56:02 Hao4K手机版

w912345 沙发

2021-1-5 23:56:02

谢谢楼主分享
回复 支持 反对

使用道具 举报

rock_wolf 发表于 2021-1-8 13:51:10

rock_wolf 板凳

2021-1-8 13:51:10

这片子不错,比电影更真实了
回复 支持 反对

使用道具 举报

jjl118 发表于 2021-1-10 15:10:01

jjl118 地板

2021-1-10 15:10:01

是否真的嘿嗨。
回复 支持 反对

使用道具 举报

   发表回复

您需要登录后才可以回帖 登录 | 立即注册

返回列表 本版积分规则

:
白银玩家
:
未填写

主题

帖子

积分940

图文推荐

  • 高清先生UX1 4k硬盘蓝光机至尊评测,有杜比

    光阴似箭,日月如梭,4K时代己火热朝天,回忆VCD

  • 一个90后的客厅4k庭影院

    从小就喜欢影音这些东西,刚接触的时候要从老式的

  • Yuran DIY制定硬盘(UHD-BD)片源存储管理规

    有言在先:原创不易,深夜写成。也很忙,暂不回复

  • 关于收藏《4KUHD蓝光原盘》还是《4KUHD蓝光

    《4K UHD 蓝光原盘》 优点:有导航菜单和电影幕后

  • 4k版角斗士

    角斗士这部经典大片4K版音视频均不错!画面雄伟壮

  • 在线客服

  • 返回顶部