微博 微信

Hao4K影音

电影频道
电影封面:
片  名: 夺宝奇兵3 4k
电影分类: 动作 冒险 剧情 奇幻 
国  家: 美国 
年  代: 80年代
分 辨 率: 4K(3840x2160)
电影格式: MKV|REMUX 
画质标准: 其他 
音质编码: 其他AAC 
电影声道: 5.1声道 
帧数/FPS: 23.976 FPS
电影语言: 英文原版 
资源大小: 6 GB
导  演: 史蒂文·斯皮尔伯格
豆瓣评分: 8.2 分
中文字幕: -
剧情简介: 传说用耶稣在最后的晚餐中用到的圣杯喝水,便能长生不老。在一次掘金活动中,记载圣杯的碑石被发现,圣杯存在的可能吸引着大批的疯狂的人展开寻找。印第安纳琼斯博士(Harrison Ford饰)也是他们中的一员,甚至连他的父亲老琼斯(Sean Connery饰)也陷入其中——但他给琼斯留下圣杯的笔记后便不知所踪。
  踏上威尼斯的土地,琼斯和事先约好的史奈达博士(Alison Doody饰)会面,他们在图书馆里凭线索找到圣盾后,却开始遭到莫名的来自十字剑兄弟的追杀。
  一番波折后,琼斯终于找到了老琼斯,同时,史奈达的纳粹身份暴露,笔记被抢走。圣杯随时都有可能落入纳粹的手中。
  于是,琼斯父子俩开始联袂上演拯救圣杯的精彩大戏!
印地安纳・琼斯和最后的十字军 / 夺宝奇兵3:圣战奇兵 / 圣战奇兵 / 印地安纳・琼斯之圣战奇兵/夺宝奇兵3 4k Indiana Jones And The Last Crusade 1989 2160p.Bluray AI x265 HEVC 10bit AAC 5.1电影信息
  1. Audio #1
  2. ID : 2
  3. Format : AAC
  4. Format/Info : Advanced Audio Codec
  5. Format profile : LC
  6. Codec ID : A_AAC
  7. Duration : 2 h 6 min
  8. Bit rate : 477 kb/s
  9. Channel(s) : 6 channels
  10. Channel positions : Front: L C R, Side: L R, LFE
  11. Sampling rate : 48.0 kHz
  12. Frame rate : 46.875 FPS (1024 spf)
  13. Compression mode : Lossy
  14. Delay relative to video : 9 ms
  15. Stream size : 433 MiB (7%)
  16. Language : English
  17. Default : No
  18. Forced : No

  19. Audio #2
  20. ID : 3
  21. Format : AAC
  22. Format/Info : Advanced Audio Codec
  23. Format profile : LC
  24. Codec ID : A_AAC
  25. Duration : 2 h 6 min
  26. Bit rate : 69.3 kb/s
  27. Channel(s) : 2 channels
  28. Channel positions : Front: L R
  29. Sampling rate : 48.0 kHz
  30. Frame rate : 46.875 FPS (1024 spf)
  31. Compression mode : Lossy
  32. Delay relative to video : 9 ms
  33. Stream size : 62.9 MiB (1%)
  34. Language : Catalan
  35. Default : No
  36. Forced : No

  37. Audio #3
  38. ID : 4
  39. Format : AAC
  40. Format/Info : Advanced Audio Codec
  41. Format profile : LC
  42. Codec ID : A_AAC
  43. Duration : 2 h 6 min
  44. Bit rate : 105 kb/s
  45. Channel(s) : 2 channels
  46. Channel positions : Front: L R
  47. Sampling rate : 48.0 kHz
  48. Frame rate : 46.875 FPS (1024 spf)
  49. Compression mode : Lossy
  50. Delay relative to video : 9 ms
  51. Stream size : 95.2 MiB (2%)
  52. Language : Spanish
  53. Default : No
  54. Forced : No

  55. Audio #4
  56. ID : 5
  57. Format : AAC
  58. Format/Info : Advanced Audio Codec
  59. Format profile : LC
  60. Codec ID : A_AAC
  61. Duration : 2 h 6 min
  62. Bit rate : 108 kb/s
  63. Channel(s) : 2 channels
  64. Channel positions : Front: L R
  65. Sampling rate : 48.0 kHz
  66. Frame rate : 46.875 FPS (1024 spf)
  67. Compression mode : Lossy
  68. Delay relative to video : 9 ms
  69. Stream size : 97.6 MiB (2%)
  70. Language : Italian
  71. Default : No
  72. Forced : No

  73. Subtitle #1
  74. ID : 6
  75. Format : PGS
  76. Muxing mode : zlib
  77. Codec ID : S_HDMV/PGS
  78. Codec ID/Info : Picture based subtitle format used on BDs/HD-DVDs
  79. Duration : 1 h 58 min
  80. Bit rate : 21.5 kb/s
  81. Count of elements : 1716
  82. Stream size : 18.2 MiB (0%)
  83. Title : English-PGS
  84. Language : English
  85. Default : No
  86. Forced : No

  87. Subtitle #2
  88. ID : 7
  89. Format : VobSub
  90. Muxing mode : zlib
  91. Codec ID : S_VOBSUB
  92. Codec ID/Info : Picture based subtitle format used on DVDs
  93. Duration : 2 h 4 min
  94. Bit rate : 5 230 b/s
  95. Count of elements : 869
  96. Stream size : 4.67 MiB (0%)
  97. Language : Catalan
  98. Default : No
  99. Forced : No

  100. Subtitle #3
  101. ID : 8
  102. Format : VobSub
  103. Muxing mode : zlib
  104. Codec ID : S_VOBSUB
  105. Codec ID/Info : Picture based subtitle format used on DVDs
  106. Duration : 2 h 6 min
  107. Bit rate : 5 646 b/s
  108. Count of elements : 879
  109. Stream size : 5.09 MiB (0%)
  110. Language : Spanish
  111. Default : No
  112. Forced : No

  113. Subtitle #4
  114. ID : 9
  115. Format : VobSub
  116. Muxing mode : zlib
  117. Codec ID : S_VOBSUB
  118. Codec ID/Info : Picture based subtitle format used on DVDs
  119. Duration : 2 h 6 min
  120. Bit rate : 5 791 b/s
  121. Count of elements : 878
  122. Stream size : 5.23 MiB (0%)
  123. Language : Italian
  124. Default : No
  125. Forced : No

  126. Subtitle #5
  127. ID : 10
  128. Format : UTF-8
  129. Codec ID : S_TEXT/UTF8
  130. Codec ID/Info : UTF-8 Plain Text
  131. Duration : 1 h 58 min
  132. Bit rate : 61 b/s
  133. Count of elements : 862
  134. Stream size : 53.4 KiB (0%)
  135. Language : Arabic
  136. Default : No
  137. Forced : No

  138. Subtitle #6
  139. ID : 11
  140. Format : UTF-8
  141. Codec ID : S_TEXT/UTF8
  142. Codec ID/Info : UTF-8 Plain Text
  143. Duration : 1 h 59 min
  144. Bit rate : 34 b/s
  145. Count of elements : 864
  146. Stream size : 30.5 KiB (0%)
  147. Language : Khmer
  148. Default : No
  149. Forced : No

  150. Subtitle #7
  151. ID : 12
  152. Format : UTF-8
  153. Codec ID : S_TEXT/UTF8
  154. Codec ID/Info : UTF-8 Plain Text
  155. Duration : 1 h 58 min
  156. Bit rate : 28 b/s
  157. Count of elements : 629
  158. Stream size : 24.8 KiB (0%)
  159. Language : Danish
  160. Default : No
  161. Forced : No

  162. Subtitle #8
  163. ID : 13
  164. Format : UTF-8
  165. Codec ID : S_TEXT/UTF8
  166. Codec ID/Info : UTF-8 Plain Text
  167. Duration : 2 h 6 min
  168. Bit rate : 29 b/s
  169. Count of elements : 735
  170. Stream size : 27.6 KiB (0%)
  171. Language : Dutch
  172. Default : No
  173. Forced : No

  174. Subtitle #9
  175. ID : 14
  176. Format : UTF-8
  177. Codec ID : S_TEXT/UTF8
  178. Codec ID/Info : UTF-8 Plain Text
  179. Duration : 1 h 57 min
  180. Bit rate : 63 b/s
  181. Count of elements : 1429
  182. Stream size : 54.6 KiB (0%)
  183. Language : Persian
  184. Default : No
  185. Forced : No

  186. Subtitle #10
  187. ID : 15
  188. Format : UTF-8
  189. Codec ID : S_TEXT/UTF8
  190. Codec ID/Info : UTF-8 Plain Text
  191. Duration : 1 h 58 min
  192. Bit rate : 34 b/s
  193. Count of elements : 864
  194. Stream size : 30.1 KiB (0%)
  195. Language : Finnish
  196. Default : No
  197. Forced : No

  198. Subtitle #11
  199. ID : 16
  200. Format : UTF-8
  201. Codec ID : S_TEXT/UTF8
  202. Codec ID/Info : UTF-8 Plain Text
  203. Duration : 1 h 59 min
  204. Bit rate : 33 b/s
  205. Count of elements : 864
  206. Stream size : 29.4 KiB (0%)
  207. Language : French
  208. Default : No
  209. Forced : No

  210. Subtitle #12
  211. ID : 17
  212. Format : UTF-8
  213. Codec ID : S_TEXT/UTF8
  214. Codec ID/Info : UTF-8 Plain Text
  215. Duration : 1 h 59 min
  216. Bit rate : 36 b/s
  217. Count of elements : 873
  218. Stream size : 32.2 KiB (0%)
  219. Language : German
  220. Default : No
  221. Forced : No

  222. Subtitle #13
  223. ID : 18
  224. Format : UTF-8
  225. Codec ID : S_TEXT/UTF8
  226. Codec ID/Info : UTF-8 Plain Text
  227. Duration : 1 h 58 min
  228. Bit rate : 49 b/s
  229. Count of elements : 868
  230. Stream size : 42.9 KiB (0%)
  231. Language : Hebrew
  232. Default : No
  233. Forced : No

  234. Subtitle #14
  235. ID : 19
  236. Format : UTF-8
  237. Codec ID : S_TEXT/UTF8
  238. Codec ID/Info : UTF-8 Plain Text
  239. Duration : 1 h 58 min
  240. Bit rate : 41 b/s
  241. Count of elements : 910
  242. Stream size : 36.2 KiB (0%)
  243. Language : Indonesian
  244. Default : No
  245. Forced : No

  246. Subtitle #15
  247. ID : 20
  248. Format : UTF-8
  249. Codec ID : S_TEXT/UTF8
  250. Codec ID/Info : UTF-8 Plain Text
  251. Duration : 1 h 59 min
  252. Bit rate : 36 b/s
  253. Count of elements : 877
  254. Stream size : 32.1 KiB (0%)
  255. Language : Italian
  256. Default : No
  257. Forced : No

  258. Subtitle #16
  259. ID : 21
  260. Format : UTF-8
  261. Codec ID : S_TEXT/UTF8
  262. Codec ID/Info : UTF-8 Plain Text
  263. Duration : 1 h 58 min
  264. Bit rate : 30 b/s
  265. Count of elements : 971
  266. Stream size : 26.6 KiB (0%)
  267. Language : Japanese
  268. Default : No
  269. Forced : No

  270. Subtitle #17
  271. ID : 22
  272. Format : UTF-8
  273. Codec ID : S_TEXT/UTF8
  274. Codec ID/Info : UTF-8 Plain Text
  275. Duration : 1 h 59 min
  276. Bit rate : 34 b/s
  277. Count of elements : 891
  278. Stream size : 30.5 KiB (0%)
  279. Language : Korean
  280. Default : No
  281. Forced : No

  282. Subtitle #18
  283. ID : 23
  284. Format : UTF-8
  285. Codec ID : S_TEXT/UTF8
  286. Codec ID/Info : UTF-8 Plain Text
  287. Duration : 1 h 58 min
  288. Bit rate : 30 b/s
  289. Count of elements : 845
  290. Stream size : 26.1 KiB (0%)
  291. Language : Norwegian
  292. Default : No
  293. Forced : No

  294. Subtitle #19
  295. ID : 24
  296. Format : UTF-8
  297. Codec ID : S_TEXT/UTF8
  298. Codec ID/Info : UTF-8 Plain Text
  299. Duration : 1 h 59 min
  300. Bit rate : 34 b/s
  301. Count of elements : 869
  302. Stream size : 30.2 KiB (0%)
  303. Language : Polish
  304. Default : No
  305. Forced : No

  306. Subtitle #20
  307. ID : 25
  308. Format : UTF-8
  309. Codec ID : S_TEXT/UTF8
  310. Codec ID/Info : UTF-8 Plain Text
  311. Duration : 1 h 59 min
  312. Bit rate : 56 b/s
  313. Count of elements : 872
  314. Stream size : 49.6 KiB (0%)
  315. Language : Russian
  316. Default : No
  317. Forced : No

  318. Subtitle #21
  319. ID : 26
  320. Format : UTF-8
  321. Codec ID : S_TEXT/UTF8
  322. Codec ID/Info : UTF-8 Plain Text
  323. Duration : 1 h 58 min
  324. Bit rate : 32 b/s
  325. Count of elements : 822
  326. Stream size : 28.2 KiB (0%)
  327. Language : Swedish
  328. Default : No
  329. Forced : No

  330. Subtitle #22
  331. ID : 27
  332. Format : UTF-8
  333. Codec ID : S_TEXT/UTF8
  334. Codec ID/Info : UTF-8 Plain Text
  335. Duration : 2 h 4 min
  336. Bit rate : 111 b/s
  337. Count of elements : 1213
  338. Stream size : 102 KiB (0%)
  339. Language : Tamil
  340. Default : No
  341. Forced : No

  342. Subtitle #23
  343. ID : 28
  344. Format : UTF-8
  345. Codec ID : S_TEXT/UTF8
  346. Codec ID/Info : UTF-8 Plain Text
  347. Duration : 2 h 4 min
  348. Bit rate : 98 b/s
  349. Count of elements : 1213
  350. Stream size : 90.0 KiB (0%)
  351. Language : Telugu
  352. Default : No
  353. Forced : No

  354. Subtitle #24
  355. ID : 29
  356. Format : UTF-8
  357. Codec ID : S_TEXT/UTF8
  358. Codec ID/Info : UTF-8 Plain Text
  359. Duration : 1 h 58 min
  360. Bit rate : 79 b/s
  361. Count of elements : 1012
  362. Stream size : 68.4 KiB (0%)
  363. Language : Thai
  364. Default : No
  365. Forced : No

  366. Subtitle #25
  367. ID : 30
  368. Format : UTF-8
  369. Codec ID : S_TEXT/UTF8
  370. Codec ID/Info : UTF-8 Plain Text
  371. Duration : 1 h 59 min
  372. Bit rate : 34 b/s
  373. Count of elements : 891
  374. Stream size : 30.3 KiB (0%)
  375. Language : Turkish
  376. Default : No
  377. Forced : No

  378. Subtitle #26
  379. ID : 31
  380. Format : UTF-8
  381. Codec ID : S_TEXT/UTF8
  382. Codec ID/Info : UTF-8 Plain Text
  383. Duration : 1 h 58 min
  384. Bit rate : 53 b/s
  385. Count of elements : 1196
  386. Stream size : 46.2 KiB (0%)
  387. Language : Vietnamese
  388. Default : No
  389. Forced : No

  390. Menu
  391. 00:00:00.000 : en:Chapter 01
  392. 00:04:41.906 : en:Chapter 02
  393. 00:08:11.032 : en:Chapter 03
  394. 00:11:49.041 : en:Chapter 04
  395. 00:14:14.436 : en:Chapter 05
  396. 00:17:19.413 : en:Chapter 06
  397. 00:22:14.583 : en:Chapter 07
  398. 00:24:51.448 : en:Chapter 08
  399. 00:26:52.152 : en:Chapter 09
  400. 00:30:15.230 : en:Chapter 10
  401. 00:36:31.564 : en:Chapter 11
  402. 00:41:10.426 : en:Chapter 12
  403. 00:44:41.387 : en:Chapter 13
  404. 00:47:42.401 : en:Chapter 14
  405. 00:50:23.729 : en:Chapter 15
  406. 00:54:47.534 : en:Chapter 16
  407. 00:56:31.137 : en:Chapter 17
  408. 01:00:16.112 : en:Chapter 18
  409. 01:03:08.743 : en:Chapter 19
  410. 01:05:31.385 : en:Chapter 20
  411. 01:07:47.313 : en:Chapter 21
  412. 01:10:43.530 : en:Chapter 22
  413. 01:13:36.328 : en:Chapter 23
  414. 01:16:11.358 : en:Chapter 24
  415. 01:18:57.107 : en:Chapter 25
  416. 01:21:20.041 : en:Chapter 26
  417. 01:23:28.420 : en:Chapter 27
  418. 01:25:16.736 : en:Chapter 28
  419. 01:26:58.046 : en:Chapter 29
  420. 01:31:21.893 : en:Chapter 30
  421. 01:36:57.061 : en:Chapter 31
  422. 01:38:53.427 : en:Chapter 32
  423. 01:41:32.544 : en:Chapter 33
  424. 01:49:18.260 : en:Chapter 34
  425. 01:56:05.667 : en:Chapter 35
  426. 02:00:05.781 : en:Chapter 36
复制代码

印地安纳・琼斯和最后的十字军 / 夺宝奇兵3:圣战奇兵 / 圣战奇兵 / 印地安纳・琼斯之圣战奇兵/夺宝奇兵3 4k Indiana Jones And The Last Crusade 1989 2160p.Bluray AI x265 HEVC 10bit AAC 5.1电影下载

夺宝奇兵3 4k Indiana Jones And The Last Crusade 1989 2160p.Bluray AI x265 HEVC 10bit AAC 5.1【6 GB】
夺宝奇兵3 4k.txt (91 Bytes)
回复

使用道具 举报

全部回复13

苏默金武 发表于 2021-1-6 18:18:25

苏默金武 沙发

2021-1-6 18:18:25

https://www.hao4k.cn/thread-52979-1-1.html 双语字幕已提供下载!!!
回复 支持 反对

使用道具 举报

kelann 发表于 2021-1-7 08:03:57

kelann 板凳

2021-1-7 08:03:57

这是最爱的一系列电影,必须顶。
回复 支持 反对

使用道具 举报

btmzxc 发表于 2021-1-7 08:53:33

btmzxc 地板

2021-1-7 08:53:33

这一系列应该出4K,谢谢
回复 支持 反对

使用道具 举报

zocke 发表于 2021-1-8 19:48:19

zocke 6#

2021-1-8 19:48:19

这个可是经典了
回复 支持 反对

使用道具 举报

alex_xi0571 发表于 2021-1-9 16:07:46

alex_xi0571 7#

2021-1-9 16:07:46

这个可是反复看了多次的了,再来复习一次
回复 支持 反对

使用道具 举报

Liuxudong926 发表于 2021-1-9 20:51:23

Liuxudong926 8#

2021-1-9 20:51:23

圣战奇兵是我看的第一部这个系列,当年没把我笑死……
太多剧情反转搞笑部分了……
回复 支持 反对

使用道具 举报

qst2000 发表于 2021-1-10 13:52:27

qst2000 9#

2021-1-10 13:52:27

这部是最好看的!!
回复 支持 反对

使用道具 举报

quake2009 发表于 2021-1-10 20:49:45

quake2009 10#

2021-1-10 20:49:45

感谢分享资源,辛苦了
回复 支持 反对

使用道具 举报

xiaoshuizhu 发表于 2021-1-10 22:24:51

xiaoshuizhu 11#

2021-1-10 22:24:51

经典系列,谢谢分享
回复 支持 反对

使用道具 举报

wf_wwz 发表于 2021-1-10 23:42:46

wf_wwz 12#

2021-1-10 23:42:46

哈利福特主演的影片其实大多都挺不错的,感谢分享!
回复 支持 反对

使用道具 举报

wf_wwz 发表于 2021-1-10 23:43:47

wf_wwz 13#

2021-1-10 23:43:47

哈利福特主演的影片大多都还不错,感谢楼主分享!
回复 支持 反对

使用道具 举报

loushunming 发表于 2021-1-11 10:01:18

loushunming 14#

2021-1-11 10:01:18

谢谢楼主无私分享好电影
回复 支持 反对

使用道具 举报

   发表回复

您需要登录后才可以回帖 登录 | 立即注册

返回列表 本版积分规则

  • 在线客服

  • 返回顶部