微博 微信

Hao4K影音

电影频道
电影封面:
片  名: 星际旅行5:终极先锋4k
电影分类: 动作 科幻 冒险 惊悚 
国  家: 美国 
年  代: 80年代
分 辨 率: 4K(3840x2160)
电影格式: MKV|REMUX 
画质标准: 其他 
音质编码: 其他AAC 
电影声道: 7.1声道 
帧数/FPS: 23.976 FPS
电影语言: 英文原版 
资源大小: 6.3 GB
导  演: 威廉·夏特纳
豆瓣评分: 6.9 分
中文字幕: -
剧情简介: 本片是《星舰迷航记》系列电影的第五集,由原班人马主演,但改由饰演寇克船长的威廉·赛特纳执导,也是他的导演处女作。故事描述一名神秘的疯狂幻想家赛布克占领了一个遥远的星球,劫持星际大使作人质,强迫企业号宇宙飞船紧急出发,进入没有人做访过的未知宇宙去寻找传说中的上帝,但上帝到底是谁呢?本片的开场颇具震撼力,可惜发展下去难以为继,使大部分的篇幅在过分玄奥的故事框架中兴圈子,只能靠壮观的视觉特效维持其吸引力,幸好结局是略有起色,不致令观众太过失望。
  正在基地修整的企业号接受了一项紧急任务,科克船长一行奉命到属于中立区的宁布星球,解救遭到叛徒控制的乐园市民。叛军挟持了企业号到银河系中心去寻找根源。
星际迷航5 / 星空奇遇记5:最后战线(港) / 星舰奇航记5:终极先锋(台) / 星际争霸战5 / 星舰迷航记5 / Star Trek 5/星际旅行5:终极先锋4k Star Trek V The Final Frontier 1989  2160p Bluray AI x265 HEVC 10bit AAC 7.1电影信息
  1. Video
  2. ID : 1
  3. Format : HEVC
  4. Format/Info : High Efficiency Video Coding
  5. Format profile : Main [email protected]@Main
  6. Codec ID : V_MPEGH/ISO/HEVC
  7. Duration : 1 h 46 min
  8. Bit rate : 6 001 kb/s
  9. Width : 3 840 pixels
  10. Height : 1 632 pixels
  11. Display aspect ratio : 2.35:1
  12. Frame rate mode : Constant
  13. Frame rate : 23.976 (24000/1001) FPS
  14. Color space : YUV
  15. Chroma subsampling : 4:2:0
  16. Bit depth : 10 bits
  17. Bits/(Pixel*Frame) : 0.040
  18. Stream size : 4.47 GiB (83%)
  19. Writing library : x265 3.2+9-971180b100f8:[Windows][GCC 9.2.0][64 bit] 10bit
  20. Encoding settings : cpuid=1111039 / frame-threads=3 / numa-pools=12 / wpp / no-pmode / no-pme / no-psnr / ssim / log-level=2 / input-csp=1 / input-res=3840x1632 / interlace=0 / total-frames=153281 / level-idc=0 / high-tier=1 / uhd-bd=0 / ref=4 / no-allow-non-conformance / no-repeat-headers / annexb / no-aud / no-hrd / info / hash=0 / no-temporal-layers / open-gop / min-keyint=23 / keyint=250 / gop-lookahead=0 / bframes=8 / b-adapt=2 / b-pyramid / bframe-bias=40 / rc-lookahead=80 / lookahead-slices=4 / scenecut=40 / radl=0 / no-splice / no-intra-refresh / ctu=64 / min-cu-size=8 / rect / no-amp / max-tu-size=32 / tu-inter-depth=1 / tu-intra-depth=1 / limit-tu=0 / rdoq-level=2 / dynamic-rd=0.00 / ssim-rd / signhide / no-tskip / nr-intra=0 / nr-inter=0 / constrained-intra / strong-intra-smoothing / max-merge=3 / limit-refs=3 / limit-modes / me=3 / subme=3 / merange=57 / temporal-mvp / no-frame-dup / no-hme / weightp / no-weightb / no-analyze-src-pics / deblock=0:0 / sao / no-sao-non-deblock / rd=4 / selective-sao=4 / early-skip / rskip / no-fast-intra / no-tskip-fast / no-cu-lossless / no-b-intra / splitrd-skip / rdpenalty=0 / psy-rd=2.45 / psy-rdoq=1.50 / no-rd-refine / no-lossless / cbqpoffs=0 / crqpoffs=0 / rc=abr / bitrate=6000 / qcomp=0.60 / qpstep=4 / stats-write=0 / stats-read=2 / cplxblur=20.0 / qblur=0.5 / ipratio=1.40 / pbratio=1.30 / aq-mode=3 / aq-strength=0.40 / cutree / zone-count=0 / no-strict-cbr / qg-size=32 / no-rc-grain / qpmax=69 / qpmin=0 / no-const-vbv / sar=0 / overscan=0 / videoformat=5 / range=0 / colorprim=2 / transfer=2 / colormatrix=2 / chromaloc=0 / display-window=0 / cll=0,0 / min-luma=0 / max-luma=1023 / log2-max-poc-lsb=8 / vui-timing-info / vui-hrd-info / slices=1 / no-opt-qp-pps / no-opt-ref-list-length-pps / multi-pass-opt-rps / scenecut-bias=0.05 / no-opt-cu-delta-qp / no-aq-motion / no-hdr / no-hdr-opt / no-dhdr10-opt / no-idr-recovery-sei / analysis-load / analysis-reuse-level=10 / scale-factor=0 / refine-intra=0 / refine-inter=0 / refine-mv=1 / refine-ctu-distortion=0 / limit-sao / ctu-info=0 / no-lowpass-dct / refine-analysis-type=0 / copy-pic=1 / max-ausize-factor=1.0 / no-dynamic-refine / no-single-sei / no-hevc-aq / no-svt / no-field / qp-adaptation-range=1.00
  21. Default : Yes
  22. Forced : No

  23. Audio #1
  24. ID : 2
  25. Format : AAC
  26. Format/Info : Advanced Audio Codec
  27. Format profile : LC
  28. Codec ID : A_AAC
  29. Duration : 1 h 46 min
  30. Bit rate : 603 kb/s
  31. Channel(s) : 8 channels
  32. Channel positions : Front: L C R, Side: L R, Back: L R, LFE
  33. Sampling rate : 48.0 kHz
  34. Frame rate : 46.875 FPS (1024 spf)
  35. Compression mode : Lossy
  36. Delay relative to video : 9 ms
  37. Stream size : 460 MiB (8%)
  38. Title : Surround 7.1
  39. Language : English
  40. Default : No
  41. Forced : No

  42. Audio #2
  43. ID : 3
  44. Format : AAC
  45. Format/Info : Advanced Audio Codec
  46. Format profile : LC
  47. Codec ID : A_AAC
  48. Duration : 1 h 46 min
  49. Bit rate : 99.6 kb/s
  50. Channel(s) : 2 channels
  51. Channel positions : Front: L R
  52. Sampling rate : 48.0 kHz
  53. Frame rate : 46.875 FPS (1024 spf)
  54. Compression mode : Lossy
  55. Delay relative to video : 9 ms
  56. Stream size : 75.9 MiB (1%)
  57. Language : German
  58. Default : No
  59. Forced : No

  60. Audio #3
  61. ID : 4
  62. Format : AAC
  63. Format/Info : Advanced Audio Codec
  64. Format profile : LC
  65. Codec ID : A_AAC
  66. Duration : 1 h 46 min
  67. Bit rate : 104 kb/s
  68. Channel(s) : 2 channels
  69. Channel positions : Front: L R
  70. Sampling rate : 48.0 kHz
  71. Frame rate : 46.875 FPS (1024 spf)
  72. Compression mode : Lossy
  73. Delay relative to video : 9 ms
  74. Stream size : 79.3 MiB (1%)
  75. Language : Spanish
  76. Default : No
  77. Forced : No

  78. Audio #4
  79. ID : 5
  80. Format : AAC
  81. Format/Info : Advanced Audio Codec
  82. Format profile : LC
  83. Codec ID : A_AAC
  84. Duration : 1 h 46 min
  85. Bit rate : 101 kb/s
  86. Channel(s) : 2 channels
  87. Channel positions : Front: L R
  88. Sampling rate : 48.0 kHz
  89. Frame rate : 46.875 FPS (1024 spf)
  90. Compression mode : Lossy
  91. Delay relative to video : 9 ms
  92. Stream size : 77.2 MiB (1%)
  93. Language : French
  94. Default : No
  95. Forced : No

  96. Audio #5
  97. ID : 6
  98. Format : AAC
  99. Format/Info : Advanced Audio Codec
  100. Format profile : LC
  101. Codec ID : A_AAC
  102. Duration : 1 h 46 min
  103. Bit rate : 101 kb/s
  104. Channel(s) : 2 channels
  105. Channel positions : Front: L R
  106. Sampling rate : 48.0 kHz
  107. Frame rate : 46.875 FPS (1024 spf)
  108. Compression mode : Lossy
  109. Delay relative to video : 9 ms
  110. Stream size : 77.0 MiB (1%)
  111. Language : Italian
  112. Default : No
  113. Forced : No

  114. Audio #6
  115. ID : 7
  116. Format : AAC
  117. Format/Info : Advanced Audio Codec
  118. Format profile : HE-AAC / LC
  119. Codec ID : A_AAC
  120. Duration : 1 h 46 min
  121. Bit rate : 48.0 kb/s
  122. Channel(s) : 2 channels
  123. Channel positions : Front: L R
  124. Sampling rate : 48.0 kHz / 24.0 kHz
  125. Frame rate : 23.438 FPS (1024 spf)
  126. Compression mode : Lossy
  127. Delay relative to video : 31 ms
  128. Stream size : 36.6 MiB (1%)
  129. Title : Commentary by director/actor William Shatner and daughter Liz Shatner
  130. Language : English
  131. Default : No
  132. Forced : No

  133. Audio #7
  134. ID : 8
  135. Format : AAC
  136. Format/Info : Advanced Audio Codec
  137. Format profile : HE-AAC / LC
  138. Codec ID : A_AAC
  139. Duration : 1 h 46 min
  140. Bit rate : 48.0 kb/s
  141. Channel(s) : 2 channels
  142. Channel positions : Front: L R
  143. Sampling rate : 48.0 kHz / 24.0 kHz
  144. Frame rate : 23.438 FPS (1024 spf)
  145. Compression mode : Lossy
  146. Delay relative to video : 31 ms
  147. Stream size : 36.4 MiB (1%)
  148. Title : Commentary by Star Trek experts Michael & Denise Okuda, Judith & Garfield Reeves-Stevens and Daren Dochterman
  149. Language : English
  150. Default : No
  151. Forced : No

  152. Subtitle #1
  153. ID : 9
  154. Format : PGS
  155. Muxing mode : zlib
  156. Codec ID : S_HDMV/PGS
  157. Codec ID/Info : Picture based subtitle format used on BDs/HD-DVDs
  158. Duration : 1 h 39 min
  159. Bit rate : 32.9 kb/s
  160. Count of elements : 2076
  161. Stream size : 23.5 MiB (0%)
  162. Language : English
  163. Default : No
  164. Forced : No

  165. Subtitle #2
  166. ID : 10
  167. Format : VobSub
  168. Muxing mode : zlib
  169. Codec ID : S_VOBSUB
  170. Codec ID/Info : Picture based subtitle format used on DVDs
  171. Duration : 1 h 45 min
  172. Bit rate : 3 679 b/s
  173. Count of elements : 744
  174. Stream size : 2.79 MiB (0%)
  175. Language : Arabic
  176. Default : No
  177. Forced : No

  178. Subtitle #3
  179. ID : 11
  180. Format : VobSub
  181. Muxing mode : zlib
  182. Codec ID : S_VOBSUB
  183. Codec ID/Info : Picture based subtitle format used on DVDs
  184. Duration : 1 h 45 min
  185. Bit rate : 6 818 b/s
  186. Count of elements : 782
  187. Stream size : 5.17 MiB (0%)
  188. Language : Danish
  189. Default : No
  190. Forced : No

  191. Subtitle #4
  192. ID : 12
  193. Format : VobSub
  194. Muxing mode : zlib
  195. Codec ID : S_VOBSUB
  196. Codec ID/Info : Picture based subtitle format used on DVDs
  197. Duration : 1 h 45 min
  198. Bit rate : 6 684 b/s
  199. Count of elements : 735
  200. Stream size : 5.07 MiB (0%)
  201. Language : German
  202. Default : No
  203. Forced : No

  204. Subtitle #5
  205. ID : 13
  206. Format : VobSub
  207. Muxing mode : zlib
  208. Codec ID : S_VOBSUB
  209. Codec ID/Info : Picture based subtitle format used on DVDs
  210. Duration : 1 h 45 min
  211. Bit rate : 8 189 b/s
  212. Count of elements : 1049
  213. Stream size : 6.21 MiB (0%)
  214. Language : Spanish
  215. Default : No
  216. Forced : No

  217. Subtitle #6
  218. ID : 14
  219. Format : VobSub
  220. Muxing mode : zlib
  221. Codec ID : S_VOBSUB
  222. Codec ID/Info : Picture based subtitle format used on DVDs
  223. Duration : 1 h 45 min
  224. Bit rate : 6 892 b/s
  225. Count of elements : 901
  226. Stream size : 5.22 MiB (0%)
  227. Language : French
  228. Default : No
  229. Forced : No

  230. Subtitle #7
  231. ID : 15
  232. Format : VobSub
  233. Muxing mode : zlib
  234. Codec ID : S_VOBSUB
  235. Codec ID/Info : Picture based subtitle format used on DVDs
  236. Duration : 1 h 45 min
  237. Bit rate : 6 746 b/s
  238. Count of elements : 756
  239. Stream size : 5.11 MiB (0%)
  240. Language : Croatian
  241. Default : No
  242. Forced : No

  243. Subtitle #8
  244. ID : 16
  245. Format : VobSub
  246. Muxing mode : zlib
  247. Codec ID : S_VOBSUB
  248. Codec ID/Info : Picture based subtitle format used on DVDs
  249. Duration : 1 h 45 min
  250. Bit rate : 8 267 b/s
  251. Count of elements : 1049
  252. Stream size : 6.27 MiB (0%)
  253. Language : Italian
  254. Default : No
  255. Forced : No

  256. Subtitle #9
  257. ID : 17
  258. Format : VobSub
  259. Muxing mode : zlib
  260. Codec ID : S_VOBSUB
  261. Codec ID/Info : Picture based subtitle format used on DVDs
  262. Duration : 1 h 45 min
  263. Bit rate : 7 018 b/s
  264. Count of elements : 743
  265. Stream size : 5.32 MiB (0%)
  266. Language : Dutch
  267. Default : No
  268. Forced : No

  269. Subtitle #10
  270. ID : 18
  271. Format : VobSub
  272. Muxing mode : zlib
  273. Codec ID : S_VOBSUB
  274. Codec ID/Info : Picture based subtitle format used on DVDs
  275. Duration : 1 h 45 min
  276. Bit rate : 6 806 b/s
  277. Count of elements : 749
  278. Stream size : 5.16 MiB (0%)
  279. Language : Norwegian Bokmal
  280. Default : No
  281. Forced : No

  282. Subtitle #11
  283. ID : 19
  284. Format : VobSub
  285. Muxing mode : zlib
  286. Codec ID : S_VOBSUB
  287. Codec ID/Info : Picture based subtitle format used on DVDs
  288. Duration : 1 h 45 min
  289. Bit rate : 6 899 b/s
  290. Count of elements : 884
  291. Stream size : 5.23 MiB (0%)
  292. Language : Portuguese
  293. Default : No
  294. Forced : No

  295. Subtitle #12
  296. ID : 20
  297. Format : VobSub
  298. Muxing mode : zlib
  299. Codec ID : S_VOBSUB
  300. Codec ID/Info : Picture based subtitle format used on DVDs
  301. Duration : 1 h 45 min
  302. Bit rate : 6 541 b/s
  303. Count of elements : 737
  304. Stream size : 4.96 MiB (0%)
  305. Language : Finnish
  306. Default : No
  307. Forced : No

  308. Subtitle #13
  309. ID : 21
  310. Format : VobSub
  311. Muxing mode : zlib
  312. Codec ID : S_VOBSUB
  313. Codec ID/Info : Picture based subtitle format used on DVDs
  314. Duration : 1 h 45 min
  315. Bit rate : 6 634 b/s
  316. Count of elements : 767
  317. Stream size : 5.03 MiB (0%)
  318. Language : Swedish
  319. Default : No
  320. Forced : No

  321. Subtitle #14
  322. ID : 22
  323. Format : VobSub
  324. Muxing mode : zlib
  325. Codec ID : S_VOBSUB
  326. Codec ID/Info : Picture based subtitle format used on DVDs
  327. Duration : 1 h 40 min
  328. Bit rate : 9 941 b/s
  329. Count of elements : 1203
  330. Stream size : 7.17 MiB (0%)
  331. Title : Commentary by director/actor William Shatner and daughter Liz Shatner
  332. Language : English
  333. Default : No
  334. Forced : No

  335. Subtitle #15
  336. ID : 23
  337. Format : VobSub
  338. Muxing mode : zlib
  339. Codec ID : S_VOBSUB
  340. Codec ID/Info : Picture based subtitle format used on DVDs
  341. Duration : 1 h 46 min
  342. Bit rate : 7 914 b/s
  343. Count of elements : 778
  344. Stream size : 6.02 MiB (0%)
  345. Language : German
  346. Default : No
  347. Forced : No

  348. Subtitle #16
  349. ID : 24
  350. Format : VobSub
  351. Muxing mode : zlib
  352. Codec ID : S_VOBSUB
  353. Codec ID/Info : Picture based subtitle format used on DVDs
  354. Duration : 1 h 42 min
  355. Bit rate : 10.2 kb/s
  356. Count of elements : 1001
  357. Stream size : 7.51 MiB (0%)
  358. Language : English
  359. Default : No
  360. Forced : No

  361. Subtitle #17
  362. ID : 25
  363. Format : VobSub
  364. Muxing mode : zlib
  365. Codec ID : S_VOBSUB
  366. Codec ID/Info : Picture based subtitle format used on DVDs
  367. Duration : 1 h 46 min
  368. Bit rate : 7 716 b/s
  369. Count of elements : 786
  370. Stream size : 5.87 MiB (0%)
  371. Language : Spanish
  372. Default : No
  373. Forced : No

  374. Subtitle #18
  375. ID : 26
  376. Format : VobSub
  377. Muxing mode : zlib
  378. Codec ID : S_VOBSUB
  379. Codec ID/Info : Picture based subtitle format used on DVDs
  380. Duration : 1 h 46 min
  381. Bit rate : 7 661 b/s
  382. Count of elements : 787
  383. Stream size : 5.83 MiB (0%)
  384. Language : French
  385. Default : No
  386. Forced : No

  387. Subtitle #19
  388. ID : 27
  389. Format : VobSub
  390. Muxing mode : zlib
  391. Codec ID : S_VOBSUB
  392. Codec ID/Info : Picture based subtitle format used on DVDs
  393. Duration : 1 h 46 min
  394. Bit rate : 8 191 b/s
  395. Count of elements : 799
  396. Stream size : 6.24 MiB (0%)
  397. Language : Italian
  398. Default : No
  399. Forced : No

  400. Subtitle #20
  401. ID : 28
  402. Format : VobSub
  403. Muxing mode : zlib
  404. Codec ID : S_VOBSUB
  405. Codec ID/Info : Picture based subtitle format used on DVDs
  406. Duration : 1 h 17 min
  407. Bit rate : 404 b/s
  408. Count of elements : 34
  409. Stream size : 230 KiB (0%)
  410. Language : German
  411. Default : No
  412. Forced : No

  413. Subtitle #21
  414. ID : 29
  415. Format : VobSub
  416. Muxing mode : zlib
  417. Codec ID : S_VOBSUB
  418. Codec ID/Info : Picture based subtitle format used on DVDs
  419. Duration : 1 h 17 min
  420. Bit rate : 404 b/s
  421. Count of elements : 34
  422. Stream size : 230 KiB (0%)
  423. Language : German
  424. Default : No
  425. Forced : No

  426. Subtitle #22
  427. ID : 30
  428. Format : VobSub
  429. Muxing mode : zlib
  430. Codec ID : S_VOBSUB
  431. Codec ID/Info : Picture based subtitle format used on DVDs
  432. Duration : 40 min 37 s
  433. Bit rate : 629 b/s
  434. Count of elements : 38
  435. Stream size : 187 KiB (0%)
  436. Title : Alien Dialog
  437. Language : English
  438. Default : No
  439. Forced : Yes

  440. Subtitle #23
  441. ID : 31
  442. Format : VobSub
  443. Muxing mode : zlib
  444. Codec ID : S_VOBSUB
  445. Codec ID/Info : Picture based subtitle format used on DVDs
  446. Duration : 40 min 37 s
  447. Bit rate : 629 b/s
  448. Count of elements : 38
  449. Stream size : 187 KiB (0%)
  450. Language : English
  451. Default : No
  452. Forced : No

  453. Subtitle #24
  454. ID : 32
  455. Format : VobSub
  456. Muxing mode : zlib
  457. Codec ID : S_VOBSUB
  458. Codec ID/Info : Picture based subtitle format used on DVDs
  459. Duration : 1 h 17 min
  460. Bit rate : 423 b/s
  461. Count of elements : 45
  462. Stream size : 240 KiB (0%)
  463. Language : Spanish
  464. Default : No
  465. Forced : No

  466. Subtitle #25
  467. ID : 33
  468. Format : VobSub
  469. Muxing mode : zlib
  470. Codec ID : S_VOBSUB
  471. Codec ID/Info : Picture based subtitle format used on DVDs
  472. Duration : 1 h 17 min
  473. Bit rate : 423 b/s
  474. Count of elements : 45
  475. Stream size : 240 KiB (0%)
  476. Language : Spanish
  477. Default : No
  478. Forced : No

  479. Subtitle #26
  480. ID : 34
  481. Format : VobSub
  482. Muxing mode : zlib
  483. Codec ID : S_VOBSUB
  484. Codec ID/Info : Picture based subtitle format used on DVDs
  485. Duration : 1 h 17 min
  486. Bit rate : 379 b/s
  487. Count of elements : 37
  488. Stream size : 216 KiB (0%)
  489. Language : French
  490. Default : No
  491. Forced : No

  492. Subtitle #27
  493. ID : 35
  494. Format : VobSub
  495. Muxing mode : zlib
  496. Codec ID : S_VOBSUB
  497. Codec ID/Info : Picture based subtitle format used on DVDs
  498. Duration : 1 h 17 min
  499. Bit rate : 379 b/s
  500. Count of elements : 37
  501. Stream size : 216 KiB (0%)
  502. Language : French
  503. Default : No
  504. Forced : No

  505. Subtitle #28
  506. ID : 36
  507. Format : VobSub
  508. Muxing mode : zlib
  509. Codec ID : S_VOBSUB
  510. Codec ID/Info : Picture based subtitle format used on DVDs
  511. Duration : 1 h 17 min
  512. Bit rate : 432 b/s
  513. Count of elements : 45
  514. Stream size : 245 KiB (0%)
  515. Language : Italian
  516. Default : No
  517. Forced : No

  518. Subtitle #29
  519. ID : 37
  520. Format : VobSub
  521. Muxing mode : zlib
  522. Codec ID : S_VOBSUB
  523. Codec ID/Info : Picture based subtitle format used on DVDs
  524. Duration : 1 h 17 min
  525. Bit rate : 432 b/s
  526. Count of elements : 45
  527. Stream size : 245 KiB (0%)
  528. Language : Italian
  529. Default : No
  530. Forced : No

  531. Subtitle #30
  532. ID : 38
  533. Format : VobSub
  534. Muxing mode : zlib
  535. Codec ID : S_VOBSUB
  536. Codec ID/Info : Picture based subtitle format used on DVDs
  537. Duration : 1 h 46 min
  538. Bit rate : 13.5 kb/s
  539. Count of elements : 1378
  540. Stream size : 10.3 MiB (0%)
  541. Language : German
  542. Default : No
  543. Forced : No

  544. Subtitle #31
  545. ID : 39
  546. Format : VobSub
  547. Muxing mode : zlib
  548. Codec ID : S_VOBSUB
  549. Codec ID/Info : Picture based subtitle format used on DVDs
  550. Duration : 1 h 42 min
  551. Bit rate : 14.4 kb/s
  552. Count of elements : 1377
  553. Stream size : 10.6 MiB (0%)
  554. Language : English
  555. Default : No
  556. Forced : No

  557. Subtitle #32
  558. ID : 40
  559. Format : VobSub
  560. Muxing mode : zlib
  561. Codec ID : S_VOBSUB
  562. Codec ID/Info : Picture based subtitle format used on DVDs
  563. Duration : 1 h 46 min
  564. Bit rate : 12.6 kb/s
  565. Count of elements : 1378
  566. Stream size : 9.62 MiB (0%)
  567. Language : Spanish
  568. Default : No
  569. Forced : No

  570. Subtitle #33
  571. ID : 41
  572. Format : VobSub
  573. Muxing mode : zlib
  574. Codec ID : S_VOBSUB
  575. Codec ID/Info : Picture based subtitle format used on DVDs
  576. Duration : 1 h 46 min
  577. Bit rate : 12.6 kb/s
  578. Count of elements : 1378
  579. Stream size : 9.57 MiB (0%)
  580. Language : French
  581. Default : No
  582. Forced : No

  583. Subtitle #34
  584. ID : 42
  585. Format : VobSub
  586. Muxing mode : zlib
  587. Codec ID : S_VOBSUB
  588. Codec ID/Info : Picture based subtitle format used on DVDs
  589. Duration : 1 h 46 min
  590. Bit rate : 12.4 kb/s
  591. Count of elements : 1378
  592. Stream size : 9.45 MiB (0%)
  593. Language : Italian
  594. Default : No
  595. Forced : No

  596. Subtitle #35
  597. ID : 43
  598. Format : UTF-8
  599. Codec ID : S_TEXT/UTF8
  600. Codec ID/Info : UTF-8 Plain Text
  601. Duration : 1 h 41 min
  602. Bit rate : 42 b/s
  603. Count of elements : 732
  604. Stream size : 31.6 KiB (0%)
  605. Language : Czech
  606. Default : No
  607. Forced : No

  608. Subtitle #36
  609. ID : 44
  610. Format : UTF-8
  611. Codec ID : S_TEXT/UTF8
  612. Codec ID/Info : UTF-8 Plain Text
  613. Duration : 1 h 41 min
  614. Bit rate : 85 b/s
  615. Count of elements : 1038
  616. Stream size : 63.1 KiB (0%)
  617. Language : Persian
  618. Default : No
  619. Forced : No

  620. Subtitle #37
  621. ID : 45
  622. Format : UTF-8
  623. Codec ID : S_TEXT/UTF8
  624. Codec ID/Info : UTF-8 Plain Text
  625. Duration : 1 h 42 min
  626. Bit rate : 73 b/s
  627. Count of elements : 1146
  628. Stream size : 54.9 KiB (0%)
  629. Language : Indonesian
  630. Default : No
  631. Forced : No

  632. Subtitle #38
  633. ID : 46
  634. Format : UTF-8
  635. Codec ID : S_TEXT/UTF8
  636. Codec ID/Info : UTF-8 Plain Text
  637. Duration : 1 h 41 min
  638. Bit rate : 119 b/s
  639. Count of elements : 1047
  640. Stream size : 88.7 KiB (0%)
  641. Language : Thai
  642. Default : No
  643. Forced : No

  644. Subtitle #39
  645. ID : 47
  646. Format : UTF-8
  647. Codec ID : S_TEXT/UTF8
  648. Codec ID/Info : UTF-8 Plain Text
  649. Duration : 1 h 41 min
  650. Bit rate : 69 b/s
  651. Count of elements : 1171
  652. Stream size : 51.7 KiB (0%)
  653. Language : Vietnamese
  654. Default : No
  655. Forced : No

  656. Menu
  657. 00:00:00.000 : en:Chapter 01
  658. 00:08:52.031 : en:Chapter 02
  659. 00:11:19.929 : en:Chapter 03
  660. 00:18:14.093 : en:Chapter 04
  661. 00:23:59.312 : en:Chapter 05
  662. 00:31:49.115 : en:Chapter 06
  663. 00:40:00.731 : en:Chapter 07
  664. 00:46:16.732 : en:Chapter 08
  665. 00:57:48.214 : en:Chapter 09
  666. 01:07:02.018 : en:Chapter 10
  667. 01:16:06.228 : en:Chapter 11
  668. 01:24:46.414 : en:Chapter 12
  669. 01:33:24.765 : en:Chapter 13
  670. 01:37:12.993 : en:Chapter 14
  671. 01:41:48.560 : en:Chapter 15
复制代码

星际迷航5 / 星空奇遇记5:最后战线(港) / 星舰奇航记5:终极先锋(台) / 星际争霸战5 / 星舰迷航记5 / Star Trek 5/星际旅行5:终极先锋4k Star Trek V The Final Frontier 1989  2160p Bluray AI x265 HEVC 10bit AAC 7.1电影下载

星际旅行5:终极先锋4k Star Trek V The Final Frontier 1989  2160p Bluray AI x265 HEVC 10bit AAC 7.1【6.3 GB】
星际旅行5:终极先锋 4k.txt (101 Bytes)
回复

使用道具 举报

苏默金武 发表于 2021-1-6 18:21:34

苏默金武 推荐

2021-1-6 18:21:34

https://www.hao4k.cn/thread-52980-1-1.html 双语完美字幕已提供下载!!!
回复 支持 1 反对 0

使用道具 举报

ywf6168 发表于 2021-1-8 10:46:22

ywf6168 地板

2021-1-8 10:46:22

感谢分享资源
回复 支持 反对

使用道具 举报

帅将军 发表于 2021-1-8 15:46:20

帅将军 5#

2021-1-8 15:46:20

这个一直找不到4K,现在终于找到了,谢谢楼主的分享
回复 支持 反对

使用道具 举报

opkqq00 发表于 2021-1-8 21:37:00

opkqq00 6#

2021-1-8 21:37:00

谢谢楼主的分享
回复 支持 反对

使用道具 举报

lywzj238 发表于 2021-1-9 18:34:39

lywzj238 7#

2021-1-9 18:34:39

谢谢分享好电影
回复 支持 反对

使用道具 举报

lywzj238 发表于 2021-1-10 09:10:07

lywzj238 8#

2021-1-10 09:10:07

谢谢分享好电影
回复 支持 反对

使用道具 举报

Arcueid 发表于 2021-1-10 14:10:07

Arcueid 9#

2021-1-10 14:10:07


谢谢分享好电影
回复 支持 反对

使用道具 举报

weng0528 发表于 2021-1-10 15:41:48

weng0528 10#

2021-1-10 15:41:48

这个版本没有字幕吗?
回复 支持 反对

使用道具 举报

quake2009 发表于 2021-1-10 20:46:44

quake2009 11#

2021-1-10 20:46:44

感谢分享资源,辛苦了
回复 支持 反对

使用道具 举报

小竹 发表于 2021-1-11 09:09:37

小竹 12#

2021-1-11 09:09:37

谢谢分享好电影,辛苦了!
回复 支持 反对

使用道具 举报

loushunming 发表于 2021-1-11 10:00:46

loushunming 13#

2021-1-11 10:00:46

谢谢楼主无私分享好电影
回复 支持 反对

使用道具 举报

康光军 发表于 2021-1-11 17:41:01

康光军 14#

2021-1-11 17:41:01


谢谢楼主分享好电影!
回复 支持 反对

使用道具 举报

sakurakasumi 发表于 2021-1-11 22:18:18

sakurakasumi 15#

2021-1-11 22:18:18

谢谢分享好电影
回复 支持 反对

使用道具 举报

15920220112 发表于 2021-1-12 18:32:43

15920220112 16#

2021-1-12 18:32:43


这个一直找不到4K,现在终于找到了,谢谢楼主的分享
回复 支持 反对

使用道具 举报

   发表回复

您需要登录后才可以回帖 登录 | 立即注册

返回列表 本版积分规则

  • 在线客服

  • 返回顶部