微博 微信

Hao4K影音

电影频道
电影封面:
片  名: 侠盗4k
电影分类: 动作 战争 
国  家: 英国 其他 
年  代: 2020年
分 辨 率: 4K(3840x2160)
电影格式: MKV|REMUX 
画质标准: HDR 
音质编码: Dolby Digital Audio 
电影声道: 其他 
帧数/FPS: 23.976 FPS
电影语言: 英文原版 
资源大小: 20.2 GB
导  演: 迈克尔·巴塞特
豆瓣评分: 4.6 分
中文字幕: /thread-53025-1-1.html
剧情简介: 讲述梅根饰演角色带领的一支雇佣兵,原本要去非洲某地营救人质,但不幸中了埋伏。在逃亡过程中,雇佣兵小队不仅要防人类的子弹,还要避开狮子的攻击。
南非救参任务(港) / 重装救援:全境猎杀(台) / 暴走/侠盗4k Rogue.2020.iTA.ENG.UHD.WEBDL.HDR.2160p.x265电影信息
  1. Video
  2. ID : 1
  3. Format : HEVC
  4. Format/Info : High Efficiency Video Coding
  5. Format profile : Main [email protected]@High
  6. Codec ID : V_MPEGH/ISO/HEVC
  7. Duration : 1 h 45 min
  8. Bit rate : 24.2 Mb/s
  9. Width : 3 840 pixels
  10. Height : 2 160 pixels
  11. Display aspect ratio : 16:9
  12. Frame rate mode : Constant
  13. Frame rate : 23.976 (24000/1001) FPS
  14. Color space : YUV
  15. Chroma subsampling : 4:2:0
  16. Bit depth : 10 bits
  17. Bits/(Pixel*Frame) : 0.122
  18. Stream size : 17.9 GiB (89%)
  19. Language : English
  20. Default : Yes
  21. Forced : No
  22. Color range : Full
  23. Color primaries : BT.2020
  24. Transfer characteristics : PQ
  25. Matrix coefficients : BT.2020 non-constant

  26. Audio #1
  27. ID : 2
  28. Format : AC-3
  29. Format/Info : Audio Coding 3
  30. Commercial name : Dolby Digital
  31. Muxing mode : Header stripping
  32. Codec ID : A_AC3
  33. Duration : 1 h 45 min
  34. Bit rate mode : Constant
  35. Bit rate : 384 kb/s
  36. Channel(s) : 6 channels
  37. Channel layout : L R C LFE Ls Rs
  38. Sampling rate : 48.0 kHz
  39. Frame rate : 31.250 FPS (1536 SPF)
  40. Bit depth : 16 bits
  41. Compression mode : Lossy
  42. Delay relative to video : 26 ms
  43. Stream size : 291 MiB (1%)
  44. Language : Italian
  45. Service kind : Complete Main
  46. Default : Yes
  47. Forced : No

  48. Audio #2
  49. ID : 3
  50. Format : DTS
  51. Format/Info : Digital Theater Systems
  52. Muxing mode : Header stripping
  53. Codec ID : A_DTS
  54. Duration : 1 h 45 min
  55. Bit rate mode : Constant
  56. Bit rate : 1 509 kb/s
  57. Channel(s) : 6 channels
  58. Channel layout : C L R Ls Rs LFE
  59. Sampling rate : 48.0 kHz
  60. Frame rate : 93.750 FPS (512 SPF)
  61. Bit depth : 24 bits
  62. Compression mode : Lossy
  63. Delay relative to video : 5 ms
  64. Stream size : 1.12 GiB (6%)
  65. Language : English
  66. Default : No
  67. Forced : No

  68. Audio #3
  69. ID : 4
  70. Format : AC-3
  71. Format/Info : Audio Coding 3
  72. Commercial name : Dolby Digital
  73. Muxing mode : Header stripping
  74. Codec ID : A_AC3
  75. Duration : 1 h 45 min
  76. Bit rate mode : Constant
  77. Bit rate : 640 kb/s
  78. Channel(s) : 6 channels
  79. Channel layout : L R C LFE Ls Rs
  80. Sampling rate : 48.0 kHz
  81. Frame rate : 31.250 FPS (1536 SPF)
  82. Bit depth : 16 bits
  83. Compression mode : Lossy
  84. Delay relative to video : 26 ms
  85. Stream size : 485 MiB (2%)
  86. Language : English
  87. Service kind : Complete Main
  88. Default : No
  89. Forced : No

  90. Text #1
  91. ID : 5
  92. Format : UTF-8
  93. Codec ID : S_TEXT/UTF8
  94. Codec ID/Info : UTF-8 Plain Text
  95. Language : Italian
  96. Default : Yes
  97. Forced : Yes

  98. Text #2
  99. ID : 6
  100. Format : UTF-8
  101. Codec ID : S_TEXT/UTF8
  102. Codec ID/Info : UTF-8 Plain Text
  103. Language : English
  104. Default : No
  105. Forced : No

  106. Menu
  107. 00:00:00.000 : en:Chapter 01
  108. 00:04:05.495 : en:Chapter 02
  109. 00:10:55.446 : en:Chapter 03
  110. 00:22:56.125 : en:Chapter 04
  111. 00:29:20.884 : en:Chapter 05
  112. 00:35:27.292 : en:Chapter 06
  113. 00:42:17.785 : en:Chapter 07
  114. 00:48:10.096 : en:Chapter 08
  115. 00:55:41.129 : en:Chapter 09
  116. 00:59:56.510 : en:Chapter 10
  117. 01:06:03.168 : en:Chapter 11
  118. 01:11:49.305 : en:Chapter 12
  119. 01:19:04.406 : en:Chapter 13
  120. 01:21:53.450 : en:Chapter 14
  121. 01:29:26.903 : en:Chapter 15
  122. 01:34:17.527 : en:Chapter 16
复制代码

南非救参任务(港) / 重装救援:全境猎杀(台) / 暴走/侠盗4k Rogue.2020.iTA.ENG.UHD.WEBDL.HDR.2160p.x265电影下载

侠盗4k Rogue.2020.iTA.ENG.UHD.WEBDL.HDR.2160p.x265【20.2 GB】
侠盗4k.txt (85 Bytes)
回复

使用道具 举报

苏默金武 发表于 2021-1-8 13:16:20

苏默金武 推荐

2021-1-8 13:16:20

https://www.hao4k.cn/thread-53025-1-1.html 双语字幕已提供下载!!!
回复 支持 反对

使用道具 举报

Marcoo 发表于 2021-1-8 18:19:26

Marcoo 推荐

2021-1-8 18:19:26

豆瓣好低.冲着梅根福克斯也要下啊. 感谢lz...
回复 支持 反对

使用道具 举报

NEWARTHUR2020 发表于 2021-1-8 08:21:55

NEWARTHUR2020 地板

2021-1-8 08:21:55

感谢分享资源,辛苦了!!
回复 支持 反对

使用道具 举报

睿凡 发表于 2021-1-8 09:23:44

睿凡 7#

2021-1-8 09:23:44

感谢分享资源
回复 支持 反对

使用道具 举报

michael655 发表于 2021-1-8 09:39:15

michael655 8#

2021-1-8 09:39:15

感谢分享资源
回复 支持 反对

使用道具 举报

xxw8888 发表于 2021-1-8 10:33:17

xxw8888 9#

2021-1-8 10:33:17

感谢分享资源,辛苦了
回复 支持 反对

使用道具 举报

xnlt568 发表于 2021-1-8 12:28:56

xnlt568 10#

2021-1-8 12:28:56

感谢分享,辛苦了
回复 支持 反对

使用道具 举报

zrdw4711 发表于 2021-1-8 13:42:49

zrdw4711 11#

2021-1-8 13:42:49

感谢分享资源,辛苦了!!
回复 支持 反对

使用道具 举报

一笑3 发表于 2021-1-8 16:18:08

一笑3 12#

2021-1-8 16:18:08

感谢分享,辛苦了
回复 支持 反对

使用道具 举报

风雨无阻-77 发表于 2021-1-8 19:04:08

风雨无阻-77 13#

2021-1-8 19:04:08

人和人斗还不够,还要狮子来斗。
回复 支持 反对

使用道具 举报

power8 发表于 2021-1-8 19:14:44

power8 14#

2021-1-8 19:14:44

非常好的资源
大力支持
回复 支持 反对

使用道具 举报

opkqq00 发表于 2021-1-8 21:38:26

opkqq00 15#

2021-1-8 21:38:26

谢谢楼主的分享
回复 支持 反对

使用道具 举报

pemelhl 发表于 2021-1-8 22:38:25

pemelhl 16#

2021-1-8 22:38:25

谢谢分享》》》》》》
回复 支持 反对

使用道具 举报

joe927 发表于 2021-1-9 17:05:19

joe927 17#

2021-1-9 17:05:19

谢谢分享》》》》》非常好的网站
回复 支持 反对

使用道具 举报

NEWARTHUR2020 发表于 2021-1-9 23:56:30

NEWARTHUR2020 18#

2021-1-9 23:56:30

谢谢分享》》》》》非常好的网站
回复 支持 反对

使用道具 举报

   发表回复

您需要登录后才可以回帖 登录 | 立即注册

返回列表 本版积分规则

  • 在线客服

  • 返回顶部