微博 微信

Hao4K影音

[美剧] 吃货天下指南4k Eaters.Guide.to.the.World.S01.2160p.美剧下载

2021-1-12 10:17:41 27862 5 |只看大图 回帖奖励 |倒序浏览 |阅读模式

大红色 楼主

2021-1-7 20:08:42

电视剧频道
电视剧封面:
电视剧名: 吃货天下指南4k
年  代: 2020  
国  家: 美国
类  别: 真人秀 
语  言: 英语
字  幕: -
上映日期: 2020-11-11
文件格式: mkv    
视频效果: 4K(3840x2160)    
资源大小: 22.03 GB
片  长: 22.03 分钟
导  演: 玛娅·鲁道夫
剧情简介:  美国知名主持人玛娅·鲁道夫将以旁白身份带领观众探索世界上不同的美食,例如来自太平洋西北地区﹑卡萨布兰卡﹑蒂华纳及哥斯达黎加等地方。
吃货天下指南4k Eaters.Guide.to.the.World.S01.2160p.HULU.WEBRip.DDP5.1.x265.美剧信息
  1. Video
  2. ID : 1
  3. Format : HEVC
  4. Format/Info : High Efficiency Video Coding
  5. Format profile : Main 10@L5.1@Main
  6. Codec ID : V_MPEGH/ISO/HEVC
  7. Duration : 31 min 14 s
  8. Bit rate : 15.9 Mb/s
  9. Width : 3 840 pixels
  10. Height : 2 160 pixels
  11. Display aspect ratio : 16:9
  12. Frame rate mode : Constant
  13. Frame rate : 23.976 (24000/1001) FPS
  14. Color space : YUV
  15. Chroma subsampling : 4:2:0
  16. Bit depth : 10 bits
  17. Bits/(Pixel*Frame) : 0.080
  18. Stream size : 3.47 GiB (98%)
  19. Default : Yes
  20. Forced : No

  21. Audio
  22. ID : 2
  23. Format : E-AC-3
  24. Format/Info : Enhanced AC-3
  25. Commercial name : Dolby Digital Plus
  26. Codec ID : A_EAC3
  27. Duration : 31 min 15 s
  28. Bit rate mode : Constant
  29. Bit rate : 256 kb/s
  30. Channel(s) : 6 channels
  31. Channel layout : L R C LFE Ls Rs
  32. Sampling rate : 48.0 kHz
  33. Frame rate : 31.250 FPS (1536 SPF)
  34. Compression mode : Lossy
  35. Stream size : 57.2 MiB (2%)
  36. Language : English
  37. Service kind : Complete Main
  38. Default : Yes
  39. Forced : No

  40. Text #1
  41. ID : 3
  42. Format : UTF-8
  43. Codec ID : S_TEXT/UTF8
  44. Codec ID/Info : UTF-8 Plain Text
  45. Duration : 31 min 0 s
  46. Bit rate : 96 b/s
  47. Count of elements : 500
  48. Stream size : 21.8 KiB (0%)
  49. Language : English
  50. Default : No
  51. Forced : No

  52. Text #2
  53. ID : 4
  54. Format : UTF-8
  55. Codec ID : S_TEXT/UTF8
  56. Codec ID/Info : UTF-8 Plain Text
  57. Duration : 31 min 2 s
  58. Bit rate : 114 b/s
  59. Count of elements : 632
  60. Stream size : 26.0 KiB (0%)
  61. Language : Spanish
  62. Default : No
  63. Forced : No
复制代码

吃货天下指南4k Eaters.Guide.to.the.World.S01.2160p.HULU.WEBRip.DDP5.1.x265.美剧下载

吃货天下指南4k Eaters.Guide.to.the.World.S01.2160p.HULU.WEBRip.DDP5.1.x265.【22.03 GB】
[Hao4k]吃货天下指南 Eaters.Guide.to.the.World.S01.2160p.HULU.WEBRip.DDP5.1.x265-.torrent (56.51 KB)
回复

使用道具 举报

全部回复5

kkk9889 发表于 2021-1-7 20:27:51

kkk9889 沙发

2021-1-7 20:27:51

到底是    吃货天下 还是 末日B近??????
回复 支持 反对

使用道具 举报

kmoi 发表于 2021-1-8 00:37:04

kmoi 板凳

2021-1-8 00:37:04

上次看得国外大比,做的那肉餐直流口水。大口大口的肉吃得就是爽。
回复 支持 反对

使用道具 举报

张巴蒂张 发表于 2021-1-11 16:28:58

张巴蒂张 5#

2021-1-11 16:28:58

是不是能看的美食视频资源哦。
回复 支持 反对

使用道具 举报

w600825 发表于 2021-1-12 10:17:41

w600825 6#

2021-1-12 10:17:41


感谢分享,辛苦了
回复 支持 反对

使用道具 举报

   发表回复

您需要登录后才可以回帖 登录 | 立即注册

返回列表 本版积分规则

:
白银玩家
:
未填写

主题

帖子

积分952

图文推荐

  • 怎样用特征码下载电影

    当我们下载电影时,看到这种情形,是不是很生气,

  • 索尼9000f电视不支持播放4k测试视频吗

    下载的700多兆2.5分钟4k测试视频 ,用3.0u盘连接索

  • 115网盘为什么限速了?

    115网盘为什么限速了?单任务只有1.5M,就算只开

  • 即将发布:地心引力4K UHD蓝光原盘电影下载

    最新消息:2013年美国科幻/惊悚/灾难片《地心引力

  • 分享玩转KODI必备的高级应用及插件的获取方

    不少人因为需要播放4在学会Kodi之后我们除了中文

  • 在线客服

  • 返回顶部