微博 微信

Hao4K影音

电影频道
电影封面:
片  名: 她自己 4K
电影分类: 剧情 
国  家: 英国 其他 
年  代: 2020年
分 辨 率: 4K(3840x2160)
电影格式: MKV|REMUX 
画质标准: HDR10 
音质编码: Dolby Digital Plus Audio 其他AAC 
电影声道: 5.1声道 
帧数/FPS: 23.976 FPS
电影语言: 英文原版 
资源大小: 10.39 GB
导  演: 菲利达·劳埃德
豆瓣评分: 6.8 分
中文字幕: /thread-53052-1-1.html
剧情简介: Single-mother Sandra (Clare Dunne) escapes her abusive partner with her two young children, only to find herself trapped in temporary accommodation. After months of struggling, she draws inspiration from one of her daughter’s bedtime stories and hits upon the idea of self-building an affordable home. She finds an architect who provides her with plans and is offered land by Peggy (Harriet Walter), a woman she cleans for. Aido (Conleth Hill), a building contractor, appears willing to help too. But as her past rears its head, in the form of Gary (Ian Lloyd Anderson), her possessive ex, and as bureaucrats fight back against her independent spirit, will Sandra be able to rebuild her life from the ground up?
她自己 4K.Herself.2020.2160p.AMZN.WEB-DL.x265.10bit.HDR10plus.DDP5.1-4k电影信息
  1. Video
  2. ID : 1
  3. Format : HEVC
  4. Format/Info : High Efficiency Video Coding
  5. Format profile : Main 10@L5@Main
  6. HDR format : SMPTE ST 2094 App 4, Version 1, HDR10+ Profile B compatible
  7. Codec ID : V_MPEGH/ISO/HEVC
  8. Duration : 1 h 37 min
  9. Bit rate : 14.6 Mb/s
  10. Width : 3 840 pixels
  11. Height : 1 600 pixels
  12. Display aspect ratio : 2.40:1
  13. Frame rate mode : Constant
  14. Frame rate : 23.976 (24000/1001) FPS
  15. Color space : YUV
  16. Chroma subsampling : 4:2:0
  17. Bit depth : 10 bits
  18. Bits/(Pixel*Frame) : 0.099
  19. Stream size : 9.96 GiB (96%)
  20. Default : Yes
  21. Forced : No
  22. Color range : Limited
  23. Color primaries : BT.2020
  24. Transfer characteristics : PQ
  25. Matrix coefficients : BT.2020 non-constant
  26. Mastering display color primaries : Display P3
  27. Mastering display luminance : min: 0.0001 cd/m2, max: 1000 cd/m2
  28. Maximum Content Light Level : 752 cd/m2
  29. Maximum Frame-Average Light Level : 145 cd/m2

  30. Audio
  31. ID : 2
  32. Format : E-AC-3
  33. Format/Info : Enhanced AC-3
  34. Commercial name : Dolby Digital Plus
  35. Codec ID : A_EAC3
  36. Duration : 1 h 37 min
  37. Bit rate mode : Constant
  38. Bit rate : 640 kb/s
  39. Channel(s) : 6 channels
  40. Channel layout : L R C LFE Ls Rs
  41. Sampling rate : 48.0 kHz
  42. Frame rate : 31.250 FPS (1536 SPF)
  43. Compression mode : Lossy
  44. Stream size : 448 MiB (4%)
  45. Language : English
  46. Service kind : Complete Main
  47. Default : Yes
  48. Forced : No

  49. Text #1
  50. ID : 3
  51. Format : UTF-8
  52. Codec ID : S_TEXT/UTF8
  53. Codec ID/Info : UTF-8 Plain Text
  54. Duration : 1 h 36 min
  55. Bit rate : 74 b/s
  56. Count of elements : 1764
  57. Stream size : 52.5 KiB (0%)
  58. Title : English
  59. Language : English
  60. Default : Yes
  61. Forced : No

  62. Text #2
  63. ID : 4
  64. Format : UTF-8
  65. Codec ID : S_TEXT/UTF8
  66. Codec ID/Info : UTF-8 Plain Text
  67. Duration : 1 h 36 min
  68. Bit rate : 49 b/s
  69. Count of elements : 1307
  70. Stream size : 34.9 KiB (0%)
  71. Title : French Canadian
  72. Language : French
  73. Default : No
  74. Forced : No
复制代码

她自己4K.Herself.2020.2160p.AMZN.WEB-DL.x265.10bit.HDR10plus.DDP5.1-4K电影下载
她自己 4K.Herself.2020.2160p.AMZN.WEB-DL.x265.10bit.HDR10plus.DDP5.1【4K HDR 10.39 GB】
[Hao4K]她自己4K.Herself.2020.2160p.AMZN.WEB-DL.x265.10bit.HDR10plus.DDP5.1-NOGRP.torrent (52.54 KB, 售价: 2 K币)

她自己电影中文字幕下载 感谢K友@maxzs分享的字幕
https://www.hao4k.cn/thread-53052-1-1.html
分享到:  QQ好友和群QQ好友和群
回复

使用道具 举报

全部回复22

沙发
qumaomao526 发表于 2021-1-8 15:39:24

qumaomao526 沙发

2021-1-8 15:39:24

前排支持 感谢分享
回复 支持 反对

使用道具 举报

地板
lovegalliani 发表于 2021-1-8 21:52:35

lovegalliani 地板

2021-1-8 21:52:35

支持一下,好电影来的
回复 支持 反对

使用道具 举报

5#
ll4027 发表于 2021-1-8 23:05:46

ll4027 5#

2021-1-8 23:05:46

支持楼主分享好电影
回复 支持 反对

使用道具 举报

8#
dyczw 发表于 2021-1-9 07:11:22

dyczw 8#

2021-1-9 07:11:22

感谢分享,辛苦了
回复 支持 反对

使用道具 举报

10#
dk30129 发表于 2021-1-9 08:54:03

dk30129 10#

2021-1-9 08:54:03

谢谢分享 ,顶你!!!
回复 支持 反对

使用道具 举报

14#
ywf6168 发表于 2021-1-9 12:42:39 Hao4K手机版

ywf6168 14#

2021-1-9 12:42:39

感谢分享新电影
回复 支持 反对

使用道具 举报

15#
2053170700 发表于 2021-1-10 20:34:08

2053170700 15#

2021-1-10 20:34:08

楼主辛苦了啊哈哈哈
回复 支持 反对

使用道具 举报

16#
happy16 发表于 2021-1-11 09:58:36

happy16 16#

2021-1-11 09:58:36


楼主辛苦了啊哈哈哈
回复 支持 反对

使用道具 举报

17#
salawang 发表于 2021-1-11 16:45:50

salawang 17#

2021-1-11 16:45:50

支持楼主分享好电影
回复 支持 反对

使用道具 举报

18#
chjcyc 发表于 2021-1-11 16:57:21

chjcyc 18#

2021-1-11 16:57:21

谢谢楼主 分享!有字幕了吗?英文太差
回复 支持 反对

使用道具 举报

   发表回复

您需要登录后才可以回帖 登录 | 立即注册

返回列表 本版积分规则

  • 在线客服

  • 返回顶部