微博 微信

Hao4K影音

电影频道
电影封面:
片  名: 死亡幻觉4k
电影分类: 科幻 惊悚 剧情 悬疑 
国  家: 美国 
年  代: 00年代
分 辨 率: 4K(3840x2160)
电影格式: MKV|REMUX 
画质标准: 其他 
音质编码: 其他AAC 
电影声道: 5.1声道 
帧数/FPS: 23.976 FPS
电影语言: 英文原版 
资源大小: 6.8 GB
导  演: 理查德·凯利
豆瓣评分: 7.3 分
中文字幕: -
剧情简介: 丹尼•达可(杰克•盖伦霍尔 饰)患有精神疾病,某天晚 上他受到莫名的召唤,梦游,也因此逃避了一架飞机坠落在他房间天花板上,这样匪夷所思的事故。
  自此以后,他的生活就发生了变化,频频出现幻觉,他时常看见一个兔人弗兰克,后者告诉他世界将在28天6小时48分12秒以后毁灭;他得到了一本书,《时空旅行奥义书》,对书中提到的时空旅行、离线宇宙产生了强烈的好奇。
  随着世界末日的临近,杰克的生活越来约诡异,他新认识的女朋友和家人也被卷了进去。看来,杰克想实现拯救世界的愿望,需要付出更多的代价。
怵目惊魂28天(台) / 唐尼・达克/死亡幻觉4k Donnie Darko (2001) DC + Featurettes (2160p BluRay AI x265 HEVC 10bit AAC 5.1电影信息
  1. Video
  2. ID : 1
  3. Format : HEVC
  4. Format/Info : High Efficiency Video Coding
  5. Format profile : Main [email protected]@Main
  6. Codec ID : V_MPEGH/ISO/HEVC
  7. Duration : 2 h 13 min
  8. Bit rate : 6 001 kb/s
  9. Width : 3 840 pixels
  10. Height : 1 632 pixels
  11. Display aspect ratio : 2.35:1
  12. Frame rate mode : Constant
  13. Frame rate : 23.976 (24000/1001) FPS
  14. Color space : YUV
  15. Chroma subsampling : 4:2:0
  16. Bit depth : 10 bits
  17. Bits/(Pixel*Frame) : 0.040
  18. Stream size : 5.61 GiB (92%)
  19. Writing library : x265 3.2+9-971180b100f8:[Windows][GCC 9.2.0][64 bit] 10bit
  20. Encoding settings : cpuid=1111039 / frame-threads=4 / numa-pools=16 / wpp / no-pmode / no-pme / no-psnr / ssim / log-level=2 / input-csp=1 / input-res=3840x1632 / interlace=0 / total-frames=192599 / level-idc=0 / high-tier=1 / uhd-bd=0 / ref=4 / no-allow-non-conformance / no-repeat-headers / annexb / no-aud / no-hrd / info / hash=0 / no-temporal-layers / open-gop / min-keyint=23 / keyint=250 / gop-lookahead=0 / bframes=12 / b-adapt=2 / b-pyramid / bframe-bias=60 / rc-lookahead=80 / lookahead-slices=4 / scenecut=40 / radl=0 / no-splice / no-intra-refresh / ctu=64 / min-cu-size=8 / no-rect / no-amp / max-tu-size=32 / tu-inter-depth=1 / tu-intra-depth=1 / limit-tu=0 / rdoq-level=2 / dynamic-rd=0.00 / ssim-rd / signhide / no-tskip / nr-intra=0 / nr-inter=0 / constrained-intra / strong-intra-smoothing / max-merge=3 / limit-refs=3 / limit-modes / me=3 / subme=3 / merange=57 / temporal-mvp / no-frame-dup / no-hme / weightp / no-weightb / no-analyze-src-pics / deblock=0:0 / sao / no-sao-non-deblock / rd=4 / selective-sao=4 / early-skip / rskip / no-fast-intra / no-tskip-fast / no-cu-lossless / no-b-intra / splitrd-skip / rdpenalty=0 / psy-rd=3.50 / psy-rdoq=2.50 / no-rd-refine / no-lossless / cbqpoffs=0 / crqpoffs=0 / rc=abr / bitrate=6000 / qcomp=0.60 / qpstep=4 / stats-write=0 / stats-read=2 / cplxblur=20.0 / qblur=0.5 / ipratio=1.40 / pbratio=1.30 / aq-mode=3 / aq-strength=0.40 / cutree / zone-count=0 / no-strict-cbr / qg-size=32 / no-rc-grain / qpmax=69 / qpmin=0 / no-const-vbv / sar=0 / overscan=0 / videoformat=5 / range=0 / colorprim=2 / transfer=2 / colormatrix=2 / chromaloc=0 / display-window=0 / cll=0,0 / min-luma=0 / max-luma=1023 / log2-max-poc-lsb=8 / vui-timing-info / vui-hrd-info / slices=1 / no-opt-qp-pps / no-opt-ref-list-length-pps / multi-pass-opt-rps / scenecut-bias=0.05 / no-opt-cu-delta-qp / no-aq-motion / no-hdr / no-hdr-opt / no-dhdr10-opt / no-idr-recovery-sei / analysis-load / analysis-reuse-level=10 / scale-factor=0 / refine-intra=0 / refine-inter=0 / refine-mv=1 / refine-ctu-distortion=0 / limit-sao / ctu-info=0 / no-lowpass-dct / refine-analysis-type=0 / copy-pic=1 / max-ausize-factor=1.0 / no-dynamic-refine / no-single-sei / no-hevc-aq / no-svt / no-field / qp-adaptation-range=1.00
  21. Default : Yes
  22. Forced : No

  23. Audio #1
  24. ID : 2
  25. Format : AAC
  26. Format/Info : Advanced Audio Codec
  27. Format profile : LC
  28. Codec ID : A_AAC
  29. Duration : 2 h 13 min
  30. Bit rate : 454 kb/s
  31. Channel(s) : 6 channels
  32. Channel positions : Front: L C R, Side: L R, LFE
  33. Sampling rate : 48.0 kHz
  34. Frame rate : 46.875 FPS (1024 spf)
  35. Compression mode : Lossy
  36. Delay relative to video : 9 ms
  37. Stream size : 434 MiB (7%)
  38. Title : Surround 5.1
  39. Language : English
  40. Default : No
  41. Forced : No

  42. Audio #2
  43. ID : 3
  44. Format : AAC
  45. Format/Info : Advanced Audio Codec
  46. Format profile : HE-AAC / LC
  47. Codec ID : A_AAC
  48. Duration : 2 h 13 min
  49. Bit rate : 44.0 kb/s
  50. Channel(s) : 2 channels
  51. Channel positions : Front: L R
  52. Sampling rate : 48.0 kHz / 24.0 kHz
  53. Frame rate : 23.438 FPS (1024 spf)
  54. Compression mode : Lossy
  55. Delay relative to video : 31 ms
  56. Stream size : 42.2 MiB (1%)
  57. Title : Commentary
  58. Language : English
  59. Default : No
  60. Forced : No

  61. Subtitle #1
  62. ID : 4
  63. Format : PGS
  64. Muxing mode : zlib
  65. Codec ID : S_HDMV/PGS
  66. Codec ID/Info : Picture based subtitle format used on BDs/HD-DVDs
  67. Duration : 2 h 13 min
  68. Bit rate : 25.4 kb/s
  69. Count of elements : 2206
  70. Stream size : 24.3 MiB (0%)
  71. Language : English
  72. Default : No
  73. Forced : No

  74. Subtitle #2
  75. ID : 5
  76. Format : UTF-8
  77. Codec ID : S_TEXT/UTF8
  78. Codec ID/Info : UTF-8 Plain Text
  79. Duration : 2 h 13 min
  80. Bit rate : 73 b/s
  81. Count of elements : 1144
  82. Stream size : 71.7 KiB (0%)
  83. Language : Arabic
  84. Default : No
  85. Forced : No

  86. Subtitle #3
  87. ID : 6
  88. Format : UTF-8
  89. Codec ID : S_TEXT/UTF8
  90. Codec ID/Info : UTF-8 Plain Text
  91. Duration : 2 h 10 min
  92. Bit rate : 52 b/s
  93. Count of elements : 1270
  94. Stream size : 50.7 KiB (0%)
  95. Language : Portuguese
  96. Default : No
  97. Forced : No

  98. Subtitle #4
  99. ID : 7
  100. Format : UTF-8
  101. Codec ID : S_TEXT/UTF8
  102. Codec ID/Info : UTF-8 Plain Text
  103. Duration : 2 h 6 min
  104. Bit rate : 40 b/s
  105. Count of elements : 1026
  106. Stream size : 37.9 KiB (0%)
  107. Language : Danish
  108. Default : No
  109. Forced : No

  110. Subtitle #5
  111. ID : 8
  112. Format : UTF-8
  113. Codec ID : S_TEXT/UTF8
  114. Codec ID/Info : UTF-8 Plain Text
  115. Duration : 2 h 8 min
  116. Bit rate : 39 b/s
  117. Count of elements : 947
  118. Stream size : 37.5 KiB (0%)
  119. Language : Dutch
  120. Default : No
  121. Forced : No

  122. Subtitle #6
  123. ID : 9
  124. Format : UTF-8
  125. Codec ID : S_TEXT/UTF8
  126. Codec ID/Info : UTF-8 Plain Text
  127. Duration : 2 h 3 min
  128. Bit rate : 75 b/s
  129. Count of elements : 1089
  130. Stream size : 67.7 KiB (0%)
  131. Language : Persian
  132. Default : No
  133. Forced : No

  134. Subtitle #7
  135. ID : 10
  136. Format : UTF-8
  137. Codec ID : S_TEXT/UTF8
  138. Codec ID/Info : UTF-8 Plain Text
  139. Duration : 2 h 10 min
  140. Bit rate : 38 b/s
  141. Count of elements : 1191
  142. Stream size : 37.1 KiB (0%)
  143. Language : French
  144. Default : No
  145. Forced : No

  146. Subtitle #8
  147. ID : 11
  148. Format : UTF-8
  149. Codec ID : S_TEXT/UTF8
  150. Codec ID/Info : UTF-8 Plain Text
  151. Duration : 2 h 2 min
  152. Bit rate : 46 b/s
  153. Count of elements : 1017
  154. Stream size : 41.7 KiB (0%)
  155. Language : German
  156. Default : No
  157. Forced : No

  158. Subtitle #9
  159. ID : 12
  160. Format : UTF-8
  161. Codec ID : S_TEXT/UTF8
  162. Codec ID/Info : UTF-8 Plain Text
  163. Duration : 2 h 10 min
  164. Bit rate : 70 b/s
  165. Count of elements : 1022
  166. Stream size : 67.6 KiB (0%)
  167. Language : Greek
  168. Default : No
  169. Forced : No

  170. Subtitle #10
  171. ID : 13
  172. Format : UTF-8
  173. Codec ID : S_TEXT/UTF8
  174. Codec ID/Info : UTF-8 Plain Text
  175. Duration : 2 h 4 min
  176. Bit rate : 67 b/s
  177. Count of elements : 1030
  178. Stream size : 61.4 KiB (0%)
  179. Language : Hebrew
  180. Default : No
  181. Forced : No

  182. Subtitle #11
  183. ID : 14
  184. Format : UTF-8
  185. Codec ID : S_TEXT/UTF8
  186. Codec ID/Info : UTF-8 Plain Text
  187. Duration : 2 h 3 min
  188. Bit rate : 43 b/s
  189. Count of elements : 1030
  190. Stream size : 39.4 KiB (0%)
  191. Language : Indonesian
  192. Default : No
  193. Forced : No

  194. Subtitle #12
  195. ID : 15
  196. Format : UTF-8
  197. Codec ID : S_TEXT/UTF8
  198. Codec ID/Info : UTF-8 Plain Text
  199. Duration : 2 h 4 min
  200. Bit rate : 49 b/s
  201. Count of elements : 1200
  202. Stream size : 44.7 KiB (0%)
  203. Language : Italian
  204. Default : No
  205. Forced : No

  206. Subtitle #13
  207. ID : 16
  208. Format : UTF-8
  209. Codec ID : S_TEXT/UTF8
  210. Codec ID/Info : UTF-8 Plain Text
  211. Duration : 1 h 42 min
  212. Bit rate : 48 b/s
  213. Count of elements : 1197
  214. Stream size : 36.1 KiB (0%)
  215. Language : Norwegian
  216. Default : No
  217. Forced : No

  218. Subtitle #14
  219. ID : 17
  220. Format : UTF-8
  221. Codec ID : S_TEXT/UTF8
  222. Codec ID/Info : UTF-8 Plain Text
  223. Duration : 2 h 2 min
  224. Bit rate : 52 b/s
  225. Count of elements : 1396
  226. Stream size : 47.0 KiB (0%)
  227. Language : Serbian
  228. Default : No
  229. Forced : No

  230. Subtitle #15
  231. ID : 18
  232. Format : UTF-8
  233. Codec ID : S_TEXT/UTF8
  234. Codec ID/Info : UTF-8 Plain Text
  235. Duration : 2 h 4 min
  236. Bit rate : 48 b/s
  237. Count of elements : 1089
  238. Stream size : 44.1 KiB (0%)
  239. Language : Spanish
  240. Default : No
  241. Forced : No

  242. Subtitle #16
  243. ID : 19
  244. Format : UTF-8
  245. Codec ID : S_TEXT/UTF8
  246. Codec ID/Info : UTF-8 Plain Text
  247. Duration : 2 h 2 min
  248. Bit rate : 43 b/s
  249. Count of elements : 948
  250. Stream size : 38.8 KiB (0%)
  251. Language : Swedish
  252. Default : No
  253. Forced : No

  254. Subtitle #17
  255. ID : 20
  256. Format : UTF-8
  257. Codec ID : S_TEXT/UTF8
  258. Codec ID/Info : UTF-8 Plain Text
  259. Duration : 2 h 5 min
  260. Bit rate : 97 b/s
  261. Count of elements : 1122
  262. Stream size : 89.5 KiB (0%)
  263. Language : Thai
  264. Default : No
  265. Forced : No

  266. Subtitle #18
  267. ID : 21
  268. Format : ASS
  269. Codec ID : S_TEXT/ASS
  270. Codec ID/Info : Advanced Sub Station Alpha
  271. Duration : 2 h 2 min
  272. Bit rate : 109 b/s
  273. Count of elements : 1450
  274. Compression mode : Lossless
  275. Stream size : 98.3 KiB (0%)
  276. Language : Vietnamese
  277. Default : No
  278. Forced : No

  279. Menu
  280. 00:00:00.000 : en:Chapter 01
  281. 00:09:36.450 : en:Chapter 02
  282. 00:18:10.547 : en:Chapter 03
  283. 00:27:06.833 : en:Chapter 04
  284. 00:38:40.026 : en:Chapter 05
  285. 00:50:57.387 : en:Chapter 06
  286. 01:05:16.078 : en:Chapter 07
  287. 01:18:38.880 : en:Chapter 08
  288. 01:29:47.006 : en:Chapter 09
  289. 01:44:37.854 : en:Chapter 10
  290. 01:51:07.911 : en:Chapter 11
  291. 02:03:17.098 : en:Chapter 12
复制代码

怵目惊魂28天(台) / 唐尼・达克/死亡幻觉4k Donnie Darko (2001) DC + Featurettes (2160p BluRay AI x265 HEVC 10bit AAC 5.1电影下载

死亡幻觉4k Donnie Darko (2001) DC + Featurettes (2160p BluRay AI x265 HEVC 10bit AAC 5.1【6.8 GB】
死亡幻觉4k.txt (89 Bytes)
回复

使用道具 举报

全部回复9

苏默金武 发表于 7 天前

苏默金武 沙发

7 天前

https://www.hao4k.cn/thread-53082-1-1.html 中文字幕已提供下载!!!
回复 支持 反对

使用道具 举报

lywzj238 发表于 6 天前

lywzj238 板凳

6 天前

谢谢分享好电影
回复 支持 反对

使用道具 举报

loushunming 发表于 6 天前

loushunming 地板

6 天前

谢谢楼主无私分享好电影
回复 支持 反对

使用道具 举报

hlj1222 发表于 6 天前

hlj1222 5#

6 天前

谢谢楼主分享这种好影片,楼主辛苦
回复 支持 反对

使用道具 举报

yangly 发表于 6 天前

yangly 7#

6 天前

谢谢楼主分享
回复 支持 反对

使用道具 举报

xjh203 发表于 前天 09:22

xjh203 10#

前天 09:22

发帖不易,多谢分享。
回复 支持 反对

使用道具 举报

发表回复

您需要登录后才可以回帖 登录 | 立即注册

返回列表 本版积分规则

  • 在线客服

  • 返回顶部