微博 微信

Hao4K影音

电影频道
电影封面:
片  名: 错误的一天4k
电影分类: 惊悚 
国  家: 美国 
年  代: 2020年
分 辨 率: 4K(3840x2160)
电影格式: MKV|REMUX 
画质标准: 其他 
音质编码: Dolby Digital Audio 
电影声道: 其他 
帧数/FPS: 24.000 FPS
电影语言: 英文原版 
资源大小: 11.7 GB
导  演: 德里克·博特
豆瓣评分: 6.0 分
中文字幕: -
剧情简介: 当妇女在错误的时间以错误的方式鸣喇叭时,无辜的日常事故迅速变成噩梦。“车轮上的愤怒”一词并没有传达陌生人会对她和她所爱的每个人所做的事情。
错误的一天4k Il.Giorno.Sbagliato.2020.iTA-ENG.Bluray.2160p.x265电影信息
  1. Video
  2. ID : 1
  3. Format : HEVC
  4. Format/Info : High Efficiency Video Coding
  5. HDR format : SMPTE ST 2086, HDR10 compatible
  6. Codec ID : V_MPEGH/ISO/HEVC
  7. Duration : 1 h 31 min
  8. Bit rate : 15.5 Mb/s
  9. Width : 3 840 pixels
  10. Height : 1 600 pixels
  11. Display aspect ratio : 2.40:1
  12. Frame rate mode : Constant
  13. Frame rate : 24.000 FPS
  14. Color space : YUV
  15. Chroma subsampling : 4:2:0 (Type 2)
  16. Bit depth : 10 bits
  17. Bits/(Pixel*Frame) : 0.105
  18. Stream size : 9.88 GiB (85%)
  19. Title : UHDRip
  20. Writing library : x265 3.4+26-ga82c6c7a7:[Windows][MSVC 1900][64 bit] 10bit
  21. Encoding settings : cpuid=1049583 / frame-threads=5 / numa-pools=32,32 / wpp / no-pmode / no-pme / no-psnr / no-ssim / log-level=2 / input-csp=1 / input-res=3840x1600 / interlace=0 / total-frames=131171 / level-idc=51 / high-tier=1 / uhd-bd=0 / ref=4 / no-allow-non-conformance / repeat-headers / annexb / aud / hrd / info / hash=0 / no-temporal-layers / no-open-gop / min-keyint=24 / keyint=250 / gop-lookahead=0 / bframes=4 / b-adapt=2 / b-pyramid / bframe-bias=0 / rc-lookahead=25 / lookahead-slices=4 / scenecut=40 / hist-scenecut=0 / radl=0 / no-splice / no-intra-refresh / ctu=64 / min-cu-size=8 / rect / no-amp / max-tu-size=32 / tu-inter-depth=1 / tu-intra-depth=1 / limit-tu=0 / rdoq-level=2 / dynamic-rd=0.00 / no-ssim-rd / signhide / no-tskip / nr-intra=0 / nr-inter=0 / no-constrained-intra / no-strong-intra-smoothing / max-merge=3 / limit-refs=3 / limit-modes / me=3 / subme=3 / merange=57 / temporal-mvp / no-frame-dup / no-hme / weightp / no-weightb / no-analyze-src-pics / deblock=-3:-3 / no-sao / no-sao-non-deblock / rd=4 / selective-sao=0 / no-early-skip / rskip / no-fast-intra / no-tskip-fast / no-cu-lossless / no-b-intra / no-splitrd-skip / rdpenalty=0 / psy-rd=2.00 / psy-rdoq=1.00 / no-rd-refine / no-lossless / cbqpoffs=0 / crqpoffs=0 / rc=crf / crf=13.0 / qcomp=0.60 / qpstep=4 / stats-write=0 / stats-read=0 / vbv-maxrate=160000 / vbv-bufsize=160000 / vbv-init=0.9 / min-vbv-fullness=50.0 / max-vbv-fullness=80.0 / crf-max=0.0 / crf-min=0.0 / ipratio=1.40 / pbratio=1.30 / aq-mode=2 / aq-strength=1.00 / cutree / zone-count=0 / no-strict-cbr / qg-size=32 / no-rc-grain / qpmax=69 / qpmin=0 / no-const-vbv / sar=1 / overscan=0 / videoformat=5 / range=0 / colorprim=9 / transfer=16 / colormatrix=9 / chromaloc=1 / chromaloc-top=2 / chromaloc-bottom=2 / display-window=0 / master-display=G(13250,34500)B(7500,3000)R(34000,16000)WP(15635,16450)L(10000000,01) / cll=1126,144 / min-luma=0 / max-luma=1023 / log2-max-poc-lsb=8 / vui-timing-info / vui-hrd-info / slices=1 / no-opt-qp-pps / no-opt-ref-list-length-pps / no-multi-pass-opt-rps / scenecut-bias=0.05 / hist-threshold=0.03 / no-opt-cu-delta-qp / no-aq-motion / hdr10 / hdr10-opt / no-dhdr10-opt / no-idr-recovery-sei / analysis-reuse-level=0 / analysis-save-reuse-level=0 / analysis-load-reuse-level=0 / scale-factor=0 / refine-intra=0 / refine-inter=0 / refine-mv=1 / refine-ctu-distortion=0 / no-limit-sao / ctu-info=0 / no-lowpass-dct / refine-analysis-type=0 / copy-pic=1 / max-ausize-factor=1.0 / no-dynamic-refine / no-single-sei / no-hevc-aq / no-svt / no-field / qp-adaptation-range=1.00 / no-scenecut-aware-qpconformance-window-offsets / right=0 / bottom=0 / decoder-max-rate=0 / no-vbv-live-multi-pass
  22. Language : English
  23. Default : Yes
  24. Forced : No
  25. Color range : Limited
  26. Color primaries : BT.2020
  27. Transfer characteristics : PQ
  28. Matrix coefficients : BT.2020 non-constant
  29. Mastering display color primaries : Display P3
  30. Mastering display luminance : min: 0.0001 cd/m2, max: 1000 cd/m2
  31. Maximum Content Light Level : 1126 cd/m2
  32. Maximum Frame-Average Light Level : 144 cd/m2

  33. Audio #1
  34. ID : 2
  35. Format : DTS
  36. Format/Info : Digital Theater Systems
  37. Codec ID : A_DTS
  38. Duration : 1 h 30 min
  39. Bit rate mode : Constant
  40. Bit rate : 1 509 kb/s
  41. Channel(s) : 6 channels
  42. Channel layout : C L R Ls Rs LFE
  43. Sampling rate : 48.0 kHz
  44. Frame rate : 93.750 FPS (512 SPF)
  45. Bit depth : 24 bits
  46. Compression mode : Lossy
  47. Stream size : 978 MiB (8%)
  48. Language : Italian
  49. Default : Yes
  50. Forced : No

  51. Audio #2
  52. ID : 3
  53. Format : AC-3
  54. Format/Info : Audio Coding 3
  55. Commercial name : Dolby Digital
  56. Codec ID : A_AC3
  57. Duration : 1 h 30 min
  58. Bit rate mode : Constant
  59. Bit rate : 640 kb/s
  60. Channel(s) : 6 channels
  61. Channel layout : L R C LFE Ls Rs
  62. Sampling rate : 48.0 kHz
  63. Frame rate : 31.250 FPS (1536 SPF)
  64. Compression mode : Lossy
  65. Stream size : 415 MiB (3%)
  66. Title : AC3
  67. Language : Italian
  68. Service kind : Complete Main
  69. Default : No
  70. Forced : No

  71. Audio #3
  72. ID : 4
  73. Format : AC-3
  74. Format/Info : Audio Coding 3
  75. Commercial name : Dolby Digital
  76. Codec ID : A_AC3
  77. Duration : 1 h 31 min
  78. Bit rate mode : Constant
  79. Bit rate : 640 kb/s
  80. Channel(s) : 6 channels
  81. Channel layout : L R C LFE Ls Rs
  82. Sampling rate : 48.0 kHz
  83. Frame rate : 31.250 FPS (1536 SPF)
  84. Compression mode : Lossy
  85. Stream size : 417 MiB (3%)
  86. Title : AC3
  87. Language : English
  88. Service kind : Complete Main
  89. Default : No
  90. Forced : No

  91. Text #1
  92. ID : 5
  93. Format : UTF-8
  94. Codec ID : S_TEXT/UTF8
  95. Codec ID/Info : UTF-8 Plain Text
  96. Duration : 37 min 56 s
  97. Bit rate : 0 b/s
  98. Count of elements : 5
  99. Stream size : 178 Bytes (0%)
  100. Title : Forced
  101. Language : Italian
  102. Default : Yes
  103. Forced : Yes

  104. Text #2
  105. ID : 6
  106. Format : UTF-8
  107. Codec ID : S_TEXT/UTF8
  108. Codec ID/Info : UTF-8 Plain Text
  109. Duration : 1 h 17 min
  110. Bit rate : 52 b/s
  111. Count of elements : 881
  112. Stream size : 29.8 KiB (0%)
  113. Title : Regular
  114. Language : Italian
  115. Default : No
  116. Forced : No

  117. Text #3
  118. ID : 7
  119. Format : UTF-8
  120. Codec ID : S_TEXT/UTF8
  121. Codec ID/Info : UTF-8 Plain Text
  122. Duration : 1 h 24 min
  123. Bit rate : 62 b/s
  124. Count of elements : 1232
  125. Stream size : 38.2 KiB (0%)
  126. Title : Non Udenti
  127. Language : English
  128. Default : No
  129. Forced : No

  130. Menu
  131. 00:00:00.000 : :Capitolo 01
  132. 00:08:11.375 : :Capitolo 02
  133. 00:16:39.583 : :Capitolo 03
  134. 00:28:42.458 : :Capitolo 04
  135. 00:40:05.083 : :Capitolo 05
  136. 00:49:52.042 : :Capitolo 06
  137. 01:02:08.042 : :Capitolo 07
  138. 01:12:07.792 : :Capitolo 08
  139. 01:21:50.958 : :Capitolo 09
复制代码

错误的一天4k Il.Giorno.Sbagliato.2020.iTA-ENG.Bluray.2160p.x265电影下载

错误的一天4k Il.Giorno.Sbagliato.2020.iTA-ENG.Bluray.2160p.x265【11.7 GB】
Il.Giorno.Sbagliato 4k.txt (101 Bytes)
回复

使用道具 举报

全部回复7

ywf6168 发表于 2021-1-11 12:02:57

ywf6168 沙发

2021-1-11 12:02:57

先下来看再说,感谢
回复 支持 反对

使用道具 举报

苏默金武 发表于 2021-1-11 17:02:45

苏默金武 板凳

2021-1-11 17:02:45

https://www.hao4k.cn/thread-53112-1-1.html 中文字幕已提供下载!!!
回复 支持 反对

使用道具 举报

lywzj238 发表于 2021-1-12 14:14:05

lywzj238 5#

2021-1-12 14:14:05

谢谢分享好电影
回复 支持 反对

使用道具 举报

ljnijing11 发表于 7 天前

ljnijing11 6#

7 天前

路怒症的电影吗
回复 支持 反对

使用道具 举报

lywzj238 发表于 7 天前

lywzj238 7#

7 天前

谢谢分享好电影
回复 支持 反对

使用道具 举报

lilongzsp 发表于 7 天前

lilongzsp 8#

7 天前

新手来报到!
回复 支持 反对

使用道具 举报

   发表回复

您需要登录后才可以回帖 登录 | 立即注册

返回列表 本版积分规则

  • 在线客服

  • 返回顶部