微博 微信

Hao4K影音

电影频道
电影封面:
片  名: 星际旅行4:抢救未来4k
电影分类: 科幻 冒险 喜剧 
国  家: 美国 
年  代: 80年代
分 辨 率: 4K(3840x2160)
电影格式: MKV|REMUX 
画质标准: 其他 
音质编码: 其他AAC 
电影声道: 7.1声道 
帧数/FPS: 23.976 FPS
电影语言: 英文原版 
资源大小: 7.2 GB
导  演: 伦纳德·尼莫伊
豆瓣评分: 8.2 分
中文字幕: -
剧情简介:  一艘巨大的外星无人探测器向地球航来,它不断地发出奇特的电波信号:功率强大的信号煮沸了海水,干扰了附近的星舰并造成了广泛的破坏。此时,詹姆斯·柯克中将与他的船员们在完成了让斯波克上校复活的任务后,驾驶着从克林贡人那抢来的猛禽舰(被改名为“赏金号”)从瓦肯星返航,尽管他们已经知道了将面临军事法庭的指控:他们被指控盗窃了联邦星舰进取号,并对她的毁坏负有责任。在此关头,尚在恢复中的斯波克发现这艘外星探测器正尝试与地球上的座头鲸建立联系;但不幸的是,早在3个世纪前座头鲸就因过度的捕猎而灭绝了。
  柯克命令“赏金号”进入引力弹射状态,利用太阳的万有引力而穿越时空来到20世纪后期。星舰于1986年抵达了美国加利福尼亚州的旧金山市,船员们将星舰藏在金门公园的一处草坪上。此后,他们开始寻找能与外星探测器沟通的鲸鱼、能将鲸鱼装在星舰上的容器,以及能让猛禽舰恢复能源供应的物质——在星舰穿越时空的旅途中能源几乎被耗尽。柯克与斯波克最终获得了一位鲸类专家吉莉安·泰勒博士的协助,她在索萨利托市鲸鱼协会照料两头座头鲸。
  在经历了许多的困难后——包括让泰勒相信他们的确来自未来——进取号的船员们成功地营救了两头座头鲸,并将它们带到未来,及时地拯救了地球。然后船员们被带到了联邦委员会的面前,接受众多的指控。没有被作为被告的斯波克也与其他船员们站在了一起。最后,鉴于他们新近的英勇表现,除了对柯克中将的控告外,针对其余被告的所有控告都被撤销。柯克以作为一名上级军官却违背命令的罪行被判有罪,并象征性地被降职为上校以示惩戒;但作为对他英勇行为的表彰,他被任命为联邦星舰进取号-A的舰长。与进取号船员一同来到23世纪的泰勒博士,决定加入星际舰队并成为一名科学官。
  作为情节框架的支线剧情,展现了斯波克逐渐地恢复了他的记忆、他此前获得并接受的人类传统,以及他对自己情感的承认。在影片开始时,他不明白母亲询问他的“感觉”有何意义;但到最后,他已能足够意识到“感觉”对人类的重要性,并托父亲告诉母亲,他“感觉良好”。
抢救未来(台) / 星际争霸战4 / 星舰迷航记4 / Star Trek 4/星际旅行4:抢救未来4k Star Trek IV The Voyage Home 19862160p Bluray AI x265 HEVC 10bit AAC 7.1电影信息
  1. Video
  2. ID                                       : 1
  3. Format                                   : HEVC
  4. Format/Info                              : High Efficiency Video Coding
  5. Codec ID                                 : V_MPEGH/ISO/HEVC
  6. Duration                                 : 1 h 58 min
  7. Bit rate                                 : 6 002 kb/s
  8. Width                                    : 3 840 pixels
  9. Height                                   : 1 616 pixels
  10. Display aspect ratio                     : 2.40:1
  11. Frame rate mode                          : Constant
  12. Frame rate                               : 23.976 (24000/1001) FPS
  13. Color space                              : YUV
  14. Chroma subsampling                       : 4:2:0
  15. Bit depth                                : 10 bits
  16. Bits/(Pixel*Frame)                       : 0.040
  17. Stream size                              : 4.98 GiB (83%)
  18. Writing library                          : x265 3.2+9-971180b100f8:[Windows][GCC 9.2.0][64 bit] 10bit
  19. Default                                  : Yes
  20. Forced                                   : No

  21. Audio #1
  22. ID                                       : 2
  23. Format                                   : AAC
  24. Format/Info                              : Advanced Audio Codec
  25. Format profile                           : LC
  26. Codec ID                                 : A_AAC
  27. Duration                                 : 1 h 58 min
  28. Bit rate                                 : 609 kb/s
  29. Channel(s)                               : 8 channels
  30. Channel positions                        : Front: L C R, Side: L R, Back: L R, LFE
  31. Sampling rate                            : 48.0 kHz
  32. Frame rate                               : 46.875 FPS (1024 spf)
  33. Compression mode                         : Lossy
  34. Delay relative to video                  : 9 ms
  35. Stream size                              : 518 MiB (8%)
  36. Title                                    : Surround 7.1
  37. Language                                 : English
  38. Default                                  : No
  39. Forced                                   : No

  40. Audio #2
  41. ID                                       : 3
  42. Format                                   : AAC
  43. Format/Info                              : Advanced Audio Codec
  44. Format profile                           : LC
  45. Codec ID                                 : A_AAC
  46. Duration                                 : 1 h 58 min
  47. Bit rate                                 : 92.2 kb/s
  48. Channel(s)                               : 2 channels
  49. Channel positions                        : Front: L R
  50. Sampling rate                            : 48.0 kHz
  51. Frame rate                               : 46.875 FPS (1024 spf)
  52. Compression mode                         : Lossy
  53. Delay relative to video                  : 9 ms
  54. Stream size                              : 78.4 MiB (1%)
  55. Language                                 : French
  56. Default                                  : No
  57. Forced                                   : No

  58. Audio #3
  59. ID                                       : 4
  60. Format                                   : AAC
  61. Format/Info                              : Advanced Audio Codec
  62. Format profile                           : LC
  63. Codec ID                                 : A_AAC
  64. Duration                                 : 1 h 58 min
  65. Bit rate                                 : 90.6 kb/s
  66. Channel(s)                               : 2 channels
  67. Channel positions                        : Front: L R
  68. Sampling rate                            : 48.0 kHz
  69. Frame rate                               : 46.875 FPS (1024 spf)
  70. Compression mode                         : Lossy
  71. Delay relative to video                  : 9 ms
  72. Stream size                              : 77.0 MiB (1%)
  73. Language                                 : Spanish
  74. Default                                  : No
  75. Forced                                   : No

  76. Audio #4
  77. ID                                       : 5
  78. Format                                   : AAC
  79. Format/Info                              : Advanced Audio Codec
  80. Format profile                           : LC
  81. Codec ID                                 : A_AAC
  82. Duration                                 : 1 h 58 min
  83. Bit rate                                 : 93.1 kb/s
  84. Channel(s)                               : 2 channels
  85. Channel positions                        : Front: L R
  86. Sampling rate                            : 48.0 kHz
  87. Frame rate                               : 46.875 FPS (1024 spf)
  88. Compression mode                         : Lossy
  89. Delay relative to video                  : 9 ms
  90. Stream size                              : 79.1 MiB (1%)
  91. Language                                 : German
  92. Default                                  : No
  93. Forced                                   : No

  94. Audio #5
  95. ID                                       : 6
  96. Format                                   : AAC
  97. Format/Info                              : Advanced Audio Codec
  98. Format profile                           : LC
  99. Codec ID                                 : A_AAC
  100. Duration                                 : 1 h 58 min
  101. Bit rate                                 : 96.0 kb/s
  102. Channel(s)                               : 2 channels
  103. Channel positions                        : Front: L R
  104. Sampling rate                            : 48.0 kHz
  105. Frame rate                               : 46.875 FPS (1024 spf)
  106. Compression mode                         : Lossy
  107. Delay relative to video                  : 9 ms
  108. Stream size                              : 81.3 MiB (1%)
  109. Language                                 : Italian
  110. Default                                  : No
  111. Forced                                   : No

  112. Audio #6
  113. ID                                       : 7
  114. Format                                   : AAC
  115. Format/Info                              : Advanced Audio Codec
  116. Format profile                           : HE-AAC / LC
  117. Codec ID                                 : A_AAC
  118. Duration                                 : 1 h 58 min
  119. Bit rate                                 : 48.0 kb/s
  120. Channel(s)                               : 2 channels
  121. Channel positions                        : Front: L R
  122. Sampling rate                            : 48.0 kHz / 24.0 kHz
  123. Frame rate                               : 23.438 FPS (1024 spf)
  124. Compression mode                         : Lossy
  125. Delay relative to video                  : 31 ms
  126. Stream size                              : 41.3 MiB (1%)
  127. Title                                    : Commentary with by actor William Shatner and director/actor Leonard Nimoy
  128. Language                                 : English
  129. Default                                  : No
  130. Forced                                   : No

  131. Audio #7
  132. ID                                       : 8
  133. Format                                   : AAC
  134. Format/Info                              : Advanced Audio Codec
  135. Format profile                           : HE-AAC / LC
  136. Codec ID                                 : A_AAC
  137. Duration                                 : 1 h 58 min
  138. Bit rate                                 : 48.0 kb/s
  139. Channel(s)                               : 2 channels
  140. Channel positions                        : Front: L R
  141. Sampling rate                            : 48.0 kHz / 24.0 kHz
  142. Frame rate                               : 23.438 FPS (1024 spf)
  143. Compression mode                         : Lossy
  144. Delay relative to video                  : 31 ms
  145. Stream size                              : 40.3 MiB (1%)
  146. Title                                    : Commentary with "Star Trek" (2009) writers Roberto Orci and Alex Kurtzman
  147. Language                                 : English
  148. Default                                  : No
  149. Forced                                   : No

  150. Subtitle #1
  151. ID                                       : 9
  152. Format                                   : PGS
  153. Muxing mode                              : zlib
  154. Codec ID                                 : S_HDMV/PGS
  155. Codec ID/Info                            : Picture based subtitle format used on BDs/HD-DVDs
  156. Duration                                 : 1 h 51 min
  157. Bit rate                                 : 40.6 kb/s
  158. Count of elements                        : 2674
  159. Stream size                              : 32.4 MiB (1%)
  160. Language                                 : English
  161. Default                                  : No
  162. Forced                                   : No

  163. Subtitle #2
  164. ID                                       : 10
  165. Format                                   : VobSub
  166. Muxing mode                              : zlib
  167. Codec ID                                 : S_VOBSUB
  168. Codec ID/Info                            : Picture based subtitle format used on DVDs
  169. Duration                                 : 1 h 54 min
  170. Bit rate                                 : 4 776 b/s
  171. Count of elements                        : 917
  172. Stream size                              : 3.92 MiB (0%)
  173. Language                                 : Arabic
  174. Default                                  : No
  175. Forced                                   : No

  176. Subtitle #3
  177. ID                                       : 11
  178. Format                                   : VobSub
  179. Muxing mode                              : zlib
  180. Codec ID                                 : S_VOBSUB
  181. Codec ID/Info                            : Picture based subtitle format used on DVDs
  182. Duration                                 : 1 h 54 min
  183. Bit rate                                 : 8 253 b/s
  184. Count of elements                        : 992
  185. Stream size                              : 6.78 MiB (0%)
  186. Language                                 : Danish
  187. Default                                  : No
  188. Forced                                   : No

  189. Subtitle #4
  190. ID                                       : 12
  191. Format                                   : VobSub
  192. Muxing mode                              : zlib
  193. Codec ID                                 : S_VOBSUB
  194. Codec ID/Info                            : Picture based subtitle format used on DVDs
  195. Duration                                 : 1 h 54 min
  196. Bit rate                                 : 8 159 b/s
  197. Count of elements                        : 934
  198. Stream size                              : 6.70 MiB (0%)
  199. Language                                 : German
  200. Default                                  : No
  201. Forced                                   : No

  202. Subtitle #5
  203. ID                                       : 13
  204. Format                                   : VobSub
  205. Muxing mode                              : zlib
  206. Codec ID                                 : S_VOBSUB
  207. Codec ID/Info                            : Picture based subtitle format used on DVDs
  208. Duration                                 : 1 h 54 min
  209. Bit rate                                 : 8 553 b/s
  210. Count of elements                        : 923
  211. Stream size                              : 7.03 MiB (0%)
  212. Language                                 : Spanish
  213. Default                                  : No
  214. Forced                                   : No

  215. Subtitle #6
  216. ID                                       : 14
  217. Format                                   : VobSub
  218. Muxing mode                              : zlib
  219. Codec ID                                 : S_VOBSUB
  220. Codec ID/Info                            : Picture based subtitle format used on DVDs
  221. Duration                                 : 1 h 54 min
  222. Bit rate                                 : 8 095 b/s
  223. Count of elements                        : 1072
  224. Stream size                              : 6.65 MiB (0%)
  225. Language                                 : French
  226. Default                                  : No
  227. Forced                                   : No

  228. Subtitle #7
  229. ID                                       : 15
  230. Format                                   : VobSub
  231. Muxing mode                              : zlib
  232. Codec ID                                 : S_VOBSUB
  233. Codec ID/Info                            : Picture based subtitle format used on DVDs
  234. Duration                                 : 1 h 54 min
  235. Bit rate                                 : 8 232 b/s
  236. Count of elements                        : 914
  237. Stream size                              : 6.76 MiB (0%)
  238. Language                                 : Croatian
  239. Default                                  : No
  240. Forced                                   : No

  241. Subtitle #8
  242. ID                                       : 16
  243. Format                                   : VobSub
  244. Muxing mode                              : zlib
  245. Codec ID                                 : S_VOBSUB
  246. Codec ID/Info                            : Picture based subtitle format used on DVDs
  247. Duration                                 : 1 h 54 min
  248. Bit rate                                 : 8 536 b/s
  249. Count of elements                        : 974
  250. Stream size                              : 7.01 MiB (0%)
  251. Language                                 : Italian
  252. Default                                  : No
  253. Forced                                   : No

  254. Subtitle #9
  255. ID                                       : 17
  256. Format                                   : VobSub
  257. Muxing mode                              : zlib
  258. Codec ID                                 : S_VOBSUB
  259. Codec ID/Info                            : Picture based subtitle format used on DVDs
  260. Duration                                 : 1 h 54 min
  261. Bit rate                                 : 8 652 b/s
  262. Count of elements                        : 921
  263. Stream size                              : 7.11 MiB (0%)
  264. Language                                 : Dutch
  265. Default                                  : No
  266. Forced                                   : No

  267. Subtitle #10
  268. ID                                       : 18
  269. Format                                   : VobSub
  270. Muxing mode                              : zlib
  271. Codec ID                                 : S_VOBSUB
  272. Codec ID/Info                            : Picture based subtitle format used on DVDs
  273. Duration                                 : 1 h 54 min
  274. Bit rate                                 : 8 436 b/s
  275. Count of elements                        : 911
  276. Stream size                              : 6.93 MiB (0%)
  277. Language                                 : Norwegian Bokmal
  278. Default                                  : No
  279. Forced                                   : No

  280. Subtitle #11
  281. ID                                       : 19
  282. Format                                   : VobSub
  283. Muxing mode                              : zlib
  284. Codec ID                                 : S_VOBSUB
  285. Codec ID/Info                            : Picture based subtitle format used on DVDs
  286. Duration                                 : 1 h 54 min
  287. Bit rate                                 : 8 981 b/s
  288. Count of elements                        : 1149
  289. Stream size                              : 7.38 MiB (0%)
  290. Language                                 : Portuguese
  291. Default                                  : No
  292. Forced                                   : No

  293. Subtitle #12
  294. ID                                       : 20
  295. Format                                   : VobSub
  296. Muxing mode                              : zlib
  297. Codec ID                                 : S_VOBSUB
  298. Codec ID/Info                            : Picture based subtitle format used on DVDs
  299. Duration                                 : 1 h 54 min
  300. Bit rate                                 : 7 881 b/s
  301. Count of elements                        : 918
  302. Stream size                              : 6.47 MiB (0%)
  303. Language                                 : Finnish
  304. Default                                  : No
  305. Forced                                   : No

  306. Subtitle #13
  307. ID                                       : 21
  308. Format                                   : VobSub
  309. Muxing mode                              : zlib
  310. Codec ID                                 : S_VOBSUB
  311. Codec ID/Info                            : Picture based subtitle format used on DVDs
  312. Duration                                 : 1 h 54 min
  313. Bit rate                                 : 7 581 b/s
  314. Count of elements                        : 908
  315. Stream size                              : 6.23 MiB (0%)
  316. Language                                 : Swedish
  317. Default                                  : No
  318. Forced                                   : No

  319. Subtitle #14
  320. ID                                       : 22
  321. Format                                   : VobSub
  322. Muxing mode                              : zlib
  323. Codec ID                                 : S_VOBSUB
  324. Codec ID/Info                            : Picture based subtitle format used on DVDs
  325. Duration                                 : 1 h 51 min
  326. Bit rate                                 : 11.6 kb/s
  327. Count of elements                        : 1400
  328. Stream size                              : 9.23 MiB (0%)
  329. Language                                 : English
  330. Default                                  : No
  331. Forced                                   : No

  332. Subtitle #15
  333. ID                                       : 23
  334. Format                                   : VobSub
  335. Muxing mode                              : zlib
  336. Codec ID                                 : S_VOBSUB
  337. Codec ID/Info                            : Picture based subtitle format used on DVDs
  338. Duration                                 : 1 h 54 min
  339. Bit rate                                 : 12.8 kb/s
  340. Count of elements                        : 1322
  341. Stream size                              : 10.5 MiB (0%)
  342. Language                                 : German
  343. Default                                  : No
  344. Forced                                   : No

  345. Subtitle #16
  346. ID                                       : 24
  347. Format                                   : VobSub
  348. Muxing mode                              : zlib
  349. Codec ID                                 : S_VOBSUB
  350. Codec ID/Info                            : Picture based subtitle format used on DVDs
  351. Duration                                 : 1 h 54 min
  352. Bit rate                                 : 13.1 kb/s
  353. Count of elements                        : 1322
  354. Stream size                              : 10.7 MiB (0%)
  355. Language                                 : English
  356. Default                                  : No
  357. Forced                                   : No

  358. Subtitle #17
  359. ID                                       : 25
  360. Format                                   : VobSub
  361. Muxing mode                              : zlib
  362. Codec ID                                 : S_VOBSUB
  363. Codec ID/Info                            : Picture based subtitle format used on DVDs
  364. Duration                                 : 1 h 54 min
  365. Bit rate                                 : 12.0 kb/s
  366. Count of elements                        : 1323
  367. Stream size                              : 9.80 MiB (0%)
  368. Language                                 : Spanish
  369. Default                                  : No
  370. Forced                                   : No

  371. Subtitle #18
  372. ID                                       : 26
  373. Format                                   : VobSub
  374. Muxing mode                              : zlib
  375. Codec ID                                 : S_VOBSUB
  376. Codec ID/Info                            : Picture based subtitle format used on DVDs
  377. Duration                                 : 1 h 54 min
  378. Bit rate                                 : 10.7 kb/s
  379. Count of elements                        : 1322
  380. Stream size                              : 8.73 MiB (0%)
  381. Language                                 : French
  382. Default                                  : No
  383. Forced                                   : No

  384. Subtitle #19
  385. ID                                       : 27
  386. Format                                   : VobSub
  387. Muxing mode                              : zlib
  388. Codec ID                                 : S_VOBSUB
  389. Codec ID/Info                            : Picture based subtitle format used on DVDs
  390. Duration                                 : 1 h 54 min
  391. Bit rate                                 : 10.5 kb/s
  392. Count of elements                        : 1322
  393. Stream size                              : 8.61 MiB (0%)
  394. Language                                 : Italian
  395. Default                                  : No
  396. Forced                                   : No

  397. Subtitle #20
  398. ID                                       : 28
  399. Format                                   : VobSub
  400. Muxing mode                              : zlib
  401. Codec ID                                 : S_VOBSUB
  402. Codec ID/Info                            : Picture based subtitle format used on DVDs
  403. Duration                                 : 1 h 56 min
  404. Bit rate                                 : 11.9 kb/s
  405. Count of elements                        : 1369
  406. Stream size                              : 9.85 MiB (0%)
  407. Language                                 : German
  408. Default                                  : No
  409. Forced                                   : No

  410. Subtitle #21
  411. ID                                       : 29
  412. Format                                   : VobSub
  413. Muxing mode                              : zlib
  414. Codec ID                                 : S_VOBSUB
  415. Codec ID/Info                            : Picture based subtitle format used on DVDs
  416. Duration                                 : 1 h 56 min
  417. Bit rate                                 : 12.7 kb/s
  418. Count of elements                        : 1370
  419. Stream size                              : 10.5 MiB (0%)
  420. Language                                 : English
  421. Default                                  : No
  422. Forced                                   : No

  423. Subtitle #22
  424. ID                                       : 30
  425. Format                                   : VobSub
  426. Muxing mode                              : zlib
  427. Codec ID                                 : S_VOBSUB
  428. Codec ID/Info                            : Picture based subtitle format used on DVDs
  429. Duration                                 : 1 h 56 min
  430. Bit rate                                 : 11.1 kb/s
  431. Count of elements                        : 1370
  432. Stream size                              : 9.19 MiB (0%)
  433. Language                                 : Spanish
  434. Default                                  : No
  435. Forced                                   : No

  436. Subtitle #23
  437. ID                                       : 31
  438. Format                                   : VobSub
  439. Muxing mode                              : zlib
  440. Codec ID                                 : S_VOBSUB
  441. Codec ID/Info                            : Picture based subtitle format used on DVDs
  442. Duration                                 : 1 h 56 min
  443. Bit rate                                 : 8 813 b/s
  444. Count of elements                        : 1370
  445. Stream size                              : 7.31 MiB (0%)
  446. Language                                 : French
  447. Default                                  : No
  448. Forced                                   : No

  449. Subtitle #24
  450. ID                                       : 32
  451. Format                                   : VobSub
  452. Muxing mode                              : zlib
  453. Codec ID                                 : S_VOBSUB
  454. Codec ID/Info                            : Picture based subtitle format used on DVDs
  455. Duration                                 : 1 h 56 min
  456. Bit rate                                 : 10.4 kb/s
  457. Count of elements                        : 1370
  458. Stream size                              : 8.61 MiB (0%)
  459. Language                                 : Italian
  460. Default                                  : No
  461. Forced                                   : No

  462. Subtitle #25
  463. ID                                       : 33
  464. Format                                   : VobSub
  465. Muxing mode                              : zlib
  466. Codec ID                                 : S_VOBSUB
  467. Codec ID/Info                            : Picture based subtitle format used on DVDs
  468. Duration                                 : 54 s 90 ms
  469. Bit rate                                 : 4 299 b/s
  470. Count of elements                        : 3
  471. Stream size                              : 28.4 KiB (0%)
  472. Language                                 : German
  473. Default                                  : No
  474. Forced                                   : No

  475. Subtitle #26
  476. ID                                       : 34
  477. Format                                   : VobSub
  478. Muxing mode                              : zlib
  479. Codec ID                                 : S_VOBSUB
  480. Codec ID/Info                            : Picture based subtitle format used on DVDs
  481. Duration                                 : 54 s 90 ms
  482. Bit rate                                 : 4 299 b/s
  483. Count of elements                        : 3
  484. Stream size                              : 28.4 KiB (0%)
  485. Language                                 : German
  486. Default                                  : No
  487. Forced                                   : No

  488. Subtitle #27
  489. ID                                       : 35
  490. Format                                   : VobSub
  491. Muxing mode                              : zlib
  492. Codec ID                                 : S_VOBSUB
  493. Codec ID/Info                            : Picture based subtitle format used on DVDs
  494. Duration                                 : 54 s 10 ms
  495. Bit rate                                 : 4 765 b/s
  496. Count of elements                        : 3
  497. Stream size                              : 31.4 KiB (0%)
  498. Language                                 : Spanish
  499. Default                                  : No
  500. Forced                                   : No

  501. Subtitle #28
  502. ID                                       : 36
  503. Format                                   : VobSub
  504. Muxing mode                              : zlib
  505. Codec ID                                 : S_VOBSUB
  506. Codec ID/Info                            : Picture based subtitle format used on DVDs
  507. Duration                                 : 54 s 10 ms
  508. Bit rate                                 : 4 765 b/s
  509. Count of elements                        : 3
  510. Stream size                              : 31.4 KiB (0%)
  511. Language                                 : Spanish
  512. Default                                  : No
  513. Forced                                   : No

  514. Subtitle #29
  515. ID                                       : 37
  516. Format                                   : VobSub
  517. Muxing mode                              : zlib
  518. Codec ID                                 : S_VOBSUB
  519. Codec ID/Info                            : Picture based subtitle format used on DVDs
  520. Duration                                 : 54 s 90 ms
  521. Bit rate                                 : 5 218 b/s
  522. Count of elements                        : 4
  523. Stream size                              : 34.5 KiB (0%)
  524. Language                                 : French
  525. Default                                  : No
  526. Forced                                   : No

  527. Subtitle #30
  528. ID                                       : 38
  529. Format                                   : VobSub
  530. Muxing mode                              : zlib
  531. Codec ID                                 : S_VOBSUB
  532. Codec ID/Info                            : Picture based subtitle format used on DVDs
  533. Duration                                 : 54 s 90 ms
  534. Bit rate                                 : 5 218 b/s
  535. Count of elements                        : 4
  536. Stream size                              : 34.5 KiB (0%)
  537. Language                                 : French
  538. Default                                  : No
  539. Forced                                   : No

  540. Subtitle #31
  541. ID                                       : 39
  542. Format                                   : VobSub
  543. Muxing mode                              : zlib
  544. Codec ID                                 : S_VOBSUB
  545. Codec ID/Info                            : Picture based subtitle format used on DVDs
  546. Duration                                 : 54 s 90 ms
  547. Bit rate                                 : 4 392 b/s
  548. Count of elements                        : 3
  549. Stream size                              : 29.0 KiB (0%)
  550. Language                                 : Italian
  551. Default                                  : No
  552. Forced                                   : No

  553. Subtitle #32
  554. ID                                       : 40
  555. Format                                   : VobSub
  556. Muxing mode                              : zlib
  557. Codec ID                                 : S_VOBSUB
  558. Codec ID/Info                            : Picture based subtitle format used on DVDs
  559. Duration                                 : 54 s 90 ms
  560. Bit rate                                 : 4 392 b/s
  561. Count of elements                        : 3
  562. Stream size                              : 29.0 KiB (0%)
  563. Language                                 : Italian
  564. Default                                  : No
  565. Forced                                   : No

  566. Subtitle #33
  567. ID                                       : 41
  568. Format                                   : UTF-8
  569. Codec ID                                 : S_TEXT/UTF8
  570. Codec ID/Info                            : UTF-8 Plain Text
  571. Duration                                 : 1 h 55 min
  572. Bit rate                                 : 104 b/s
  573. Count of elements                        : 1335
  574. Stream size                              : 88.0 KiB (0%)
  575. Language                                 : Persian
  576. Default                                  : No
  577. Forced                                   : No

  578. Subtitle #34
  579. ID                                       : 42
  580. Format                                   : UTF-8
  581. Codec ID                                 : S_TEXT/UTF8
  582. Codec ID/Info                            : UTF-8 Plain Text
  583. Duration                                 : 1 h 55 min
  584. Bit rate                                 : 68 b/s
  585. Count of elements                        : 1336
  586. Stream size                              : 58.2 KiB (0%)
  587. Language                                 : Indonesian
  588. Default                                  : No
  589. Forced                                   : No

  590. Subtitle #35
  591. ID                                       : 43
  592. Format                                   : UTF-8
  593. Codec ID                                 : S_TEXT/UTF8
  594. Codec ID/Info                            : UTF-8 Plain Text
  595. Duration                                 : 1 h 54 min
  596. Bit rate                                 : 109 b/s
  597. Count of elements                        : 931
  598. Stream size                              : 92.3 KiB (0%)
  599. Language                                 : Thai
  600. Default                                  : No
  601. Forced                                   : No

  602. Subtitle #36
  603. ID                                       : 44
  604. Format                                   : UTF-8
  605. Codec ID                                 : S_TEXT/UTF8
  606. Codec ID/Info                            : UTF-8 Plain Text
  607. Duration                                 : 1 h 54 min
  608. Bit rate                                 : 78 b/s
  609. Count of elements                        : 1510
  610. Stream size                              : 65.9 KiB (0%)
  611. Language                                 : Vietnamese
  612. Default                                  : No
  613. Forced                                   : No

  614. Menu
  615. 00:00:00.000                             : en:Chapter 01
  616. 00:03:08.938                             : en:Chapter 02
  617. 00:07:02.171                             : en:Chapter 03
  618. 00:13:36.023                             : en:Chapter 04
  619. 00:16:43.168                             : en:Chapter 05
  620. 00:27:29.939                             : en:Chapter 06
  621. 00:36:06.747                             : en:Chapter 07
  622. 00:45:25.389                             : en:Chapter 08
  623. 00:51:33.423                             : en:Chapter 09
  624. 00:58:01.769                             : en:Chapter 10
  625. 01:02:57.648                             : en:Chapter 11
  626. 01:12:17.666                             : en:Chapter 12
  627. 01:17:38.654                             : en:Chapter 13
  628. 01:22:44.542                             : en:Chapter 14
  629. 01:28:29.304                             : en:Chapter 15
  630. 01:37:17.081                             : en:Chapter 16
  631. 01:48:14.279                             : en:Chapter 17
  632. 01:55:00.727                             : en:Chapter 18
复制代码

抢救未来(台) / 星际争霸战4 / 星舰迷航记4 / Star Trek 4/星际旅行4:抢救未来4k Star Trek IV The Voyage Home 19862160p Bluray AI x265 HEVC 10bit AAC 7.1电影下载

星际旅行4:抢救未来4k Star Trek IV The Voyage Home 19862160p Bluray AI x265 HEVC 10bit AAC 7.1【7.2 GB】
星际旅行4:抢救未来4k.txt (100 Bytes)
回复

使用道具 举报

全部回复10

苏默金武 发表于 2021-1-10 16:58:27

苏默金武 沙发

2021-1-10 16:58:27

https://www.hao4k.cn/thread-53081-1-1.html 中文字幕已提供下载!!!
回复 支持 反对

使用道具 举报

loushunming 发表于 7 天前

loushunming 板凳

7 天前

谢谢楼主无私分享好电影
回复 支持 反对

使用道具 举报

xnlt568 发表于 7 天前

xnlt568 地板

7 天前

不知好看不,先谢谢,辛苦了
回复 支持 反对

使用道具 举报

hu58 发表于 7 天前

hu58 5#

7 天前

7.2G的4k,这个有点不对劲吧
回复 支持 反对

使用道具 举报

kennethlin168 发表于 6 天前

kennethlin168 6#

6 天前


不知好看不,先谢谢,辛苦了
回复 支持 反对

使用道具 举报

yuuuu1942 发表于 6 天前

yuuuu1942 7#

6 天前

谢谢楼主无私分享好电影
回复 支持 反对

使用道具 举报

hu58 发表于 5 天前

hu58 8#

5 天前

都是ai修复的啊,并不是原生的?
回复 支持 反对

使用道具 举报

gsxbp@163.com 发表于 5 天前

gsxbp@163.com 9#

5 天前

先下载了再说,谢谢分享!
回复 支持 反对

使用道具 举报

lien320 发表于 5 天前

lien320 10#

5 天前

好老的电影
回复 支持 反对

使用道具 举报

alanli 发表于 4 天前

alanli 11#

4 天前

谢谢楼主无私分享好电影
回复 支持 反对

使用道具 举报

发表回复

您需要登录后才可以回帖 登录 | 立即注册

返回列表 本版积分规则

  • 在线客服

  • 返回顶部