微博 微信

Hao4K影音

[美剧] 美国众神 第三季4k American.Gods.S03E01.A.Winters.Tale.2160p.美剧下载

7 小时前 14120 3 |只看大图 回帖奖励 |倒序浏览 |阅读模式

大红色 楼主

4 天前

电视剧频道
电视剧封面:
电视剧名: 美国众神 第三季4k
年  代:
国  家: 美国
类  别: 剧情 悬疑 奇幻 
语  言: 英语
字  幕: 英文原版
上映日期: 2021-01-10
文件格式: mkv    
视频效果: 4K(3840x2160)    
资源大小: 5.03 GB
片  长: 60 分钟
导  演: 查尔斯·H·伊格里 / 尼尔·盖曼
剧情简介: 历经数年牢狱之灾,影子(瑞奇·惠特尔 Ricky Whittle 饰)终于迎来重获自由的时刻,可是他并不因此而快乐。妻子劳拉(艾米莉·布朗宁 Emily meijubar.net Browning 饰)数日前死于车祸,回家路上又遭遇自称“星期三”(伊恩·麦柯肖恩 Ian McShane 饰)的男人的不断纠缠。最终,影子受雇于星期三,成为对方的保镖。原来星期三的真实身份是北欧之神奥丁,由于现代文明的飞速发展,古老的神祇渐渐被人遗忘,而以手枪、毒品、娱乐为代表的新神迅速崛起。后者无所不用其极想将旧神驱逐,而奥丁作为旧神的代表则四处寻找伙伴,对抗新神的欺凌。繁华时代,神与神的战争拉开序幕……
  本片根据尼尔•盖曼的同名原作改编。
美国神祗/美国众神 第三季4k American.Gods.S03E01.A.Winters.Tale.2160p.WEBRip.DDP5.1.x265.美剧信息
  1. Video
  2. ID : 1
  3. Format : HEVC
  4. Format/Info : High Efficiency Video Coding
  5. Format profile : Main@L5@Main
  6. Codec ID : V_MPEGH/ISO/HEVC
  7. Duration : 55 min 47 s
  8. Bit rate : 12.3 Mb/s
  9. Width : 3 840 pixels
  10. Height : 2 160 pixels
  11. Display aspect ratio : 16:9
  12. Frame rate mode : Constant
  13. Frame rate : 23.976 (24000/1001) FPS
  14. Standard : NTSC
  15. Color space : YUV
  16. Chroma subsampling : 4:2:0
  17. Bit depth : 8 bits
  18. Bits/(Pixel*Frame) : 0.062
  19. Stream size : 4.78 GiB (95%)
  20. Writing library : x265 2.9_elemental+1-9e0607aa5b6f:[Linux][GCC 4.8.5][64 bit] 8bit+10bit+12bit
  21. Default : Yes
  22. Forced : No
  23. Color range : Limited
  24. Color primaries : BT.709
  25. Transfer characteristics : BT.709
  26. Matrix coefficients : BT.709

  27. Audio
  28. ID : 2
  29. Format : E-AC-3
  30. Format/Info : Enhanced AC-3
  31. Commercial name : Dolby Digital Plus
  32. Codec ID : A_EAC3
  33. Duration : 55 min 47 s
  34. Bit rate mode : Constant
  35. Bit rate : 640 kb/s
  36. Channel(s) : 6 channels
  37. Channel layout : L R C LFE Ls Rs
  38. Sampling rate : 48.0 kHz
  39. Frame rate : 31.250 FPS (1536 SPF)
  40. Compression mode : Lossy
  41. Stream size : 255 MiB (5%)
  42. Title : English
  43. Language : English
  44. Service kind : Complete Main
  45. Default : No
  46. Forced : No

  47. Text #1
  48. ID : 3
  49. Format : UTF-8
  50. Codec ID : S_TEXT/UTF8
  51. Codec ID/Info : UTF-8 Plain Text
  52. Duration : 53 min 14 s
  53. Bit rate : 72 b/s
  54. Count of elements : 551
  55. Stream size : 28.1 KiB (0%)
  56. Title : Arabic
  57. Language : Arabic
  58. Default : No
  59. Forced : No

  60. Text #2
  61. ID : 4
  62. Format : UTF-8
  63. Codec ID : S_TEXT/UTF8
  64. Codec ID/Info : UTF-8 Plain Text
  65. Duration : 53 min 14 s
  66. Bit rate : 141 b/s
  67. Count of elements : 570
  68. Stream size : 55.2 KiB (0%)
  69. Title : Bengali
  70. Language : Bengali
  71. Default : No
  72. Forced : No

  73. Text #3
  74. ID : 5
  75. Format : UTF-8
  76. Codec ID : S_TEXT/UTF8
  77. Codec ID/Info : UTF-8 Plain Text
  78. Duration : 53 min 13 s
  79. Bit rate : 61 b/s
  80. Count of elements : 694
  81. Stream size : 23.9 KiB (0%)
  82. Title : German
  83. Language : German
  84. Default : No
  85. Forced : No

  86. Text #4
  87. ID : 6
  88. Format : UTF-8
  89. Codec ID : S_TEXT/UTF8
  90. Codec ID/Info : UTF-8 Plain Text
  91. Duration : 55 min 22 s
  92. Bit rate : 67 b/s
  93. Count of elements : 954
  94. Stream size : 27.5 KiB (0%)
  95. Title : English [SDH]
  96. Language : English
  97. Default : No
  98. Forced : No

  99. Text #5
  100. ID : 7
  101. Format : UTF-8
  102. Codec ID : S_TEXT/UTF8
  103. Codec ID/Info : UTF-8 Plain Text
  104. Duration : 54 min 42 s
  105. Bit rate : 55 b/s
  106. Count of elements : 742
  107. Stream size : 22.2 KiB (0%)
  108. Title : English
  109. Language : English
  110. Default : No
  111. Forced : No

  112. Text #6
  113. ID : 8
  114. Format : UTF-8
  115. Codec ID : S_TEXT/UTF8
  116. Codec ID/Info : UTF-8 Plain Text
  117. Duration : 53 min 14 s
  118. Bit rate : 52 b/s
  119. Count of elements : 629
  120. Stream size : 20.5 KiB (0%)
  121. Title : Spanish
  122. Language : Spanish
  123. Default : No
  124. Forced : No

  125. Text #7
  126. ID : 9
  127. Format : UTF-8
  128. Codec ID : S_TEXT/UTF8
  129. Codec ID/Info : UTF-8 Plain Text
  130. Duration : 53 min 14 s
  131. Bit rate : 53 b/s
  132. Count of elements : 560
  133. Stream size : 20.9 KiB (0%)
  134. Title : Castilian
  135. Language : Spanish
  136. Default : No
  137. Forced : No

  138. Text #8
  139. ID : 10
  140. Format : UTF-8
  141. Codec ID : S_TEXT/UTF8
  142. Codec ID/Info : UTF-8 Plain Text
  143. Duration : 52 min 31 s
  144. Bit rate : 50 b/s
  145. Count of elements : 642
  146. Stream size : 19.6 KiB (0%)
  147. Title : French
  148. Language : French
  149. Default : No
  150. Forced : No

  151. Text #9
  152. ID : 11
  153. Format : UTF-8
  154. Codec ID : S_TEXT/UTF8
  155. Codec ID/Info : UTF-8 Plain Text
  156. Duration : 53 min 14 s
  157. Bit rate : 139 b/s
  158. Count of elements : 571
  159. Stream size : 54.5 KiB (0%)
  160. Title : Hindi
  161. Language : Hindi
  162. Default : No
  163. Forced : No

  164. Text #10
  165. ID : 12
  166. Format : UTF-8
  167. Codec ID : S_TEXT/UTF8
  168. Codec ID/Info : UTF-8 Plain Text
  169. Duration : 53 min 14 s
  170. Bit rate : 52 b/s
  171. Count of elements : 562
  172. Stream size : 20.5 KiB (0%)
  173. Title : Indonesian
  174. Language : Indonesian
  175. Default : No
  176. Forced : No

  177. Text #11
  178. ID : 13
  179. Format : UTF-8
  180. Codec ID : S_TEXT/UTF8
  181. Codec ID/Info : UTF-8 Plain Text
  182. Duration : 52 min 31 s
  183. Bit rate : 57 b/s
  184. Count of elements : 566
  185. Stream size : 22.0 KiB (0%)
  186. Title : Italian
  187. Language : Italian
  188. Default : No
  189. Forced : No

  190. Text #12
  191. ID : 14
  192. Format : UTF-8
  193. Codec ID : S_TEXT/UTF8
  194. Codec ID/Info : UTF-8 Plain Text
  195. Duration : 53 min 14 s
  196. Bit rate : 47 b/s
  197. Count of elements : 585
  198. Stream size : 18.6 KiB (0%)
  199. Title : Japanese
  200. Language : Japanese
  201. Default : No
  202. Forced : No

  203. Text #13
  204. ID : 15
  205. Format : UTF-8
  206. Codec ID : S_TEXT/UTF8
  207. Codec ID/Info : UTF-8 Plain Text
  208. Duration : 53 min 14 s
  209. Bit rate : 56 b/s
  210. Count of elements : 568
  211. Stream size : 22.0 KiB (0%)
  212. Title : Korean
  213. Language : Korean
  214. Default : No
  215. Forced : No

  216. Text #14
  217. ID : 16
  218. Format : UTF-8
  219. Codec ID : S_TEXT/UTF8
  220. Codec ID/Info : UTF-8 Plain Text
  221. Duration : 53 min 14 s
  222. Bit rate : 137 b/s
  223. Count of elements : 584
  224. Stream size : 53.6 KiB (0%)
  225. Title : Marathi
  226. Language : Marathi
  227. Default : No
  228. Forced : No

  229. Text #15
  230. ID : 17
  231. Format : UTF-8
  232. Codec ID : S_TEXT/UTF8
  233. Codec ID/Info : UTF-8 Plain Text
  234. Duration : 52 min 32 s
  235. Bit rate : 53 b/s
  236. Count of elements : 514
  237. Stream size : 20.6 KiB (0%)
  238. Title : Dutch
  239. Language : Dutch
  240. Default : No
  241. Forced : No

  242. Text #16
  243. ID : 18
  244. Format : UTF-8
  245. Codec ID : S_TEXT/UTF8
  246. Codec ID/Info : UTF-8 Plain Text
  247. Duration : 53 min 14 s
  248. Bit rate : 48 b/s
  249. Count of elements : 550
  250. Stream size : 18.8 KiB (0%)
  251. Title : Polish
  252. Language : Polish
  253. Default : No
  254. Forced : No

  255. Text #17
  256. ID : 19
  257. Format : UTF-8
  258. Codec ID : S_TEXT/UTF8
  259. Codec ID/Info : UTF-8 Plain Text
  260. Duration : 53 min 14 s
  261. Bit rate : 55 b/s
  262. Count of elements : 631
  263. Stream size : 21.7 KiB (0%)
  264. Title : Brazilian Portuguese
  265. Language : Portuguese
  266. Default : No
  267. Forced : No

  268. Text #18
  269. ID : 20
  270. Format : UTF-8
  271. Codec ID : S_TEXT/UTF8
  272. Codec ID/Info : UTF-8 Plain Text
  273. Duration : 53 min 14 s
  274. Bit rate : 52 b/s
  275. Count of elements : 554
  276. Stream size : 20.6 KiB (0%)
  277. Title : Portuguese
  278. Language : Portuguese
  279. Default : No
  280. Forced : No

  281. Text #19
  282. ID : 21
  283. Format : UTF-8
  284. Codec ID : S_TEXT/UTF8
  285. Codec ID/Info : UTF-8 Plain Text
  286. Duration : 53 min 14 s
  287. Bit rate : 82 b/s
  288. Count of elements : 570
  289. Stream size : 32.0 KiB (0%)
  290. Title : Russian
  291. Language : Russian
  292. Default : No
  293. Forced : No

  294. Text #20
  295. ID : 22
  296. Format : UTF-8
  297. Codec ID : S_TEXT/UTF8
  298. Codec ID/Info : UTF-8 Plain Text
  299. Duration : 53 min 14 s
  300. Bit rate : 149 b/s
  301. Count of elements : 570
  302. Stream size : 58.2 KiB (0%)
  303. Title : Telugu
  304. Language : Telugu
  305. Default : No
  306. Forced : No

  307. Text #21
  308. ID : 23
  309. Format : UTF-8
  310. Codec ID : S_TEXT/UTF8
  311. Codec ID/Info : UTF-8 Plain Text
  312. Duration : 53 min 14 s
  313. Bit rate : 57 b/s
  314. Count of elements : 563
  315. Stream size : 22.5 KiB (0%)
  316. Title : Turkish
  317. Language : Turkish
  318. Default : No
  319. Forced : No

  320. Text #22
  321. ID : 24
  322. Format : UTF-8
  323. Codec ID : S_TEXT/UTF8
  324. Codec ID/Info : UTF-8 Plain Text
  325. Duration : 53 min 14 s
  326. Bit rate : 52 b/s
  327. Count of elements : 602
  328. Stream size : 20.4 KiB (0%)
  329. Title : Chinese (Simplified)
  330. Language : Chinese
  331. Default : No
  332. Forced : No

  333. Text #23
  334. ID : 25
  335. Format : UTF-8
  336. Codec ID : S_TEXT/UTF8
  337. Codec ID/Info : UTF-8 Plain Text
  338. Duration : 53 min 14 s
  339. Bit rate : 53 b/s
  340. Count of elements : 602
  341. Stream size : 20.8 KiB (0%)
  342. Title : Chinese (Traditional)
  343. Language : Chinese
  344. Default : No
  345. Forced : No

  346. Menu
  347. 00:00:00.000 : en:Amazon Original
  348. 00:00:06.000 : en:Previously On
  349. 00:03:12.000 : en:Death metal tributes
  350. 00:05:59.000 : en:Opening Credits
  351. 00:07:31.000 : en:Factory work
  352. 00:09:48.000 : en:Laura\'s desperate
  353. 00:11:38.000 : en:Running out of luck
  354. 00:14:59.000 : en:A disturbing encounter
  355. 00:18:32.000 : en:Control the narrative
  356. 00:20:25.000 : en:Twenty questions
  357. 00:24:45.000 : en:Having technical difficulties
  358. 00:29:20.000 : en:Road blockade
  359. 00:33:42.000 : en:Coming to collect
  360. 00:38:08.000 : en:Finding Whiskey Jack
  361. 00:41:49.000 : en:Shadow wants to make his own decisions
  362. 00:45:12.000 : en:Bus depot
  363. 00:46:37.000 : en:Arriving in Lakeside
  364. 00:48:35.000 : en:The cold North
  365. 00:50:53.000 : en:A ride home
  366. 00:52:50.000 : en:A broken entrance
  367. 00:54:35.000 : en:End Credits
复制代码

美国神祗/美国众神 第三季4k American.Gods.S03E01.A.Winters.Tale.2160p.WEBRip.DDP5.1.x265.美剧下载

美国众神 第三季4k American.Gods.S03E01.A.Winters.Tale.2160p.WEBRip.DDP5.1.x265【5.03 GB】
[Hao4k]美国众神 第三季4k American.Gods.S03E01.A.Winters.Tale.2160p.WEBRip.DDP5.1.torrent (25.71 KB)
回复

使用道具 举报

全部回复3

逆水风帆 发表于 7 小时前

逆水风帆 地板

7 小时前

这个评分高不高呀,有点兴趣
回复 支持 反对

使用道具 举报

发表回复

您需要登录后才可以回帖 登录 | 立即注册

返回列表 本版积分规则

:
白银玩家
:
未填写

主题

帖子

积分925

图文推荐

  • 2020年最新三星8K/4K电视该怎么选?三星新

    今年三星带来了两款8K电视系列Q950TS以及Q800T,

  • 基于 PotPlayer 和 madVR 的播放器的设置教

    文章转载自:vcb-s Potplayer 是高清影视常用的

  • 实战刨析双层杜比视界究竟为何方“圣物”

    首先引用一下今天看到某个朋友对双层杜比的诠释:

  • 芝杜z9x自带播放器 播放字幕为什么模糊不清

    用芝杜z9x自带播放器 播放个别字幕为什么模糊不清

  • 索尼4K电视播放4K电影/视频的方法教程(新

    索尼4K电视播放4K电影/视频的方法教程(新手必读

  • 在线客服

  • 返回顶部