微博 微信

Hao4K影音

[美剧] 传奇4k Marvel.Studios.Legends.S01E01.2160p.美剧下载

前天 16:36 74044 13 |只看大图 回帖奖励 |倒序浏览 |阅读模式

大红色 楼主

2021-1-13 17:40:22

电视剧频道
电视剧封面:
电视剧名: 传奇4k
年  代: 2021  
国  家: 美国
类  别: 动作 科幻 奇幻 
语  言: 英语
字  幕: 英文原版
上映日期: 2021-01-08
文件格式: mkv    
视频效果: 4K(3840x2160)    
资源大小: 878.37 MB GB
片  长: -
导  演: -
剧情简介: -
传奇4k Marvel.Studios.Legends.S01E01.2160p.DSNP.WEBRip.x265.10bit.HDR.DDP5.1.Atmos.美剧信息
  1. Video
  2. ID : 1
  3. Format : HEVC
  4. Format/Info : High Efficiency Video Coding
  5. Format profile : Main 10@L5@High
  6. HDR format : SMPTE ST 2086, HDR10 compatible
  7. Codec ID : V_MPEGH/ISO/HEVC
  8. Duration : 7 min 24 s
  9. Bit rate : 15.8 Mb/s
  10. Width : 3 840 pixels
  11. Height : 2 160 pixels
  12. Display aspect ratio : 16:9
  13. Frame rate mode : Constant
  14. Frame rate : 23.976 (24000/1001) FPS
  15. Color space : YUV
  16. Chroma subsampling : 4:2:0
  17. Bit depth : 10 bits
  18. Bits/(Pixel*Frame) : 0.080
  19. Stream size : 837 MiB (95%)
  20. Default : Yes
  21. Forced : No
  22. Color range : Limited
  23. Color primaries : BT.2020
  24. Transfer characteristics : PQ
  25. Matrix coefficients : BT.2020 non-constant
  26. Mastering display color primaries : BT.2020
  27. Mastering display luminance : min: 0.0000 cd/m2, max: 1000 cd/m2

  28. Audio
  29. ID : 2
  30. Format : E-AC-3 JOC
  31. Format/Info : Enhanced AC-3 with Joint Object Coding
  32. Commercial name : Dolby Digital Plus with Dolby Atmos
  33. Codec ID : A_EAC3
  34. Duration : 7 min 24 s
  35. Bit rate mode : Constant
  36. Bit rate : 768 kb/s
  37. Channel(s) : 6 channels
  38. Channel layout : L R C LFE Ls Rs
  39. Sampling rate : 48.0 kHz
  40. Frame rate : 31.250 FPS (1536 SPF)
  41. Compression mode : Lossy
  42. Stream size : 40.7 MiB (5%)
  43. Language : English
  44. Service kind : Complete Main
  45. Default : Yes
  46. Forced : No
  47. Complexity index : 16
  48. Number of dynamic objects : 15
  49. Bed channel count : 1 channel
  50. Bed channel configuration : LFE

  51. Text #1
  52. ID : 3
  53. Format : UTF-8
  54. Codec ID : S_TEXT/UTF8
  55. Codec ID/Info : UTF-8 Plain Text
  56. Duration : 7 min 19 s
  57. Bit rate : 62 b/s
  58. Count of elements : 81
  59. Stream size : 3.34 KiB (0%)
  60. Language : Danish
  61. Default : No
  62. Forced : No

  63. Text #2
  64. ID : 4
  65. Format : UTF-8
  66. Codec ID : S_TEXT/UTF8
  67. Codec ID/Info : UTF-8 Plain Text
  68. Duration : 7 min 19 s
  69. Bit rate : 62 b/s
  70. Count of elements : 100
  71. Stream size : 3.37 KiB (0%)
  72. Language : German
  73. Default : No
  74. Forced : No

  75. Text #3
  76. ID : 5
  77. Format : UTF-8
  78. Codec ID : S_TEXT/UTF8
  79. Codec ID/Info : UTF-8 Plain Text
  80. Duration : 7 min 7 s
  81. Bit rate : 71 b/s
  82. Count of elements : 103
  83. Stream size : 3.72 KiB (0%)
  84. Title : (SDH)
  85. Language : English
  86. Default : No
  87. Forced : No

  88. Text #4
  89. ID : 6
  90. Format : UTF-8
  91. Codec ID : S_TEXT/UTF8
  92. Codec ID/Info : UTF-8 Plain Text
  93. Duration : 7 min 19 s
  94. Bit rate : 59 b/s
  95. Count of elements : 103
  96. Stream size : 3.22 KiB (0%)
  97. Language : Finnish
  98. Default : No
  99. Forced : No

  100. Text #5
  101. ID : 7
  102. Format : UTF-8
  103. Codec ID : S_TEXT/UTF8
  104. Codec ID/Info : UTF-8 Plain Text
  105. Duration : 7 min 19 s
  106. Bit rate : 68 b/s
  107. Count of elements : 105
  108. Stream size : 3.69 KiB (0%)
  109. Language : French
  110. Default : No
  111. Forced : No

  112. Text #6
  113. ID : 8
  114. Format : UTF-8
  115. Codec ID : S_TEXT/UTF8
  116. Codec ID/Info : UTF-8 Plain Text
  117. Duration : 7 min 19 s
  118. Bit rate : 58 b/s
  119. Count of elements : 103
  120. Stream size : 3.16 KiB (0%)
  121. Language : Italian
  122. Default : No
  123. Forced : No

  124. Text #7
  125. ID : 9
  126. Format : UTF-8
  127. Codec ID : S_TEXT/UTF8
  128. Codec ID/Info : UTF-8 Plain Text
  129. Duration : 7 min 19 s
  130. Bit rate : 57 b/s
  131. Count of elements : 93
  132. Stream size : 3.11 KiB (0%)
  133. Language : Dutch
  134. Default : No
  135. Forced : No

  136. Text #8
  137. ID : 10
  138. Format : UTF-8
  139. Codec ID : S_TEXT/UTF8
  140. Codec ID/Info : UTF-8 Plain Text
  141. Duration : 7 min 19 s
  142. Bit rate : 59 b/s
  143. Count of elements : 103
  144. Stream size : 3.19 KiB (0%)
  145. Language : Norwegian
  146. Default : No
  147. Forced : No

  148. Text #9
  149. ID : 11
  150. Format : UTF-8
  151. Codec ID : S_TEXT/UTF8
  152. Codec ID/Info : UTF-8 Plain Text
  153. Duration : 7 min 19 s
  154. Bit rate : 62 b/s
  155. Count of elements : 104
  156. Stream size : 3.35 KiB (0%)
  157. Language : Polish
  158. Default : No
  159. Forced : No

  160. Text #10
  161. ID : 12
  162. Format : UTF-8
  163. Codec ID : S_TEXT/UTF8
  164. Codec ID/Info : UTF-8 Plain Text
  165. Duration : 7 min 19 s
  166. Bit rate : 63 b/s
  167. Count of elements : 104
  168. Stream size : 3.39 KiB (0%)
  169. Language : Portuguese
  170. Default : No
  171. Forced : No

  172. Text #11
  173. ID : 13
  174. Format : UTF-8
  175. Codec ID : S_TEXT/UTF8
  176. Codec ID/Info : UTF-8 Plain Text
  177. Duration : 7 min 19 s
  178. Bit rate : 60 b/s
  179. Count of elements : 104
  180. Stream size : 3.23 KiB (0%)
  181. Language : Spanish
  182. Default : No
  183. Forced : No

  184. Text #12
  185. ID : 14
  186. Format : UTF-8
  187. Codec ID : S_TEXT/UTF8
  188. Codec ID/Info : UTF-8 Plain Text
  189. Duration : 7 min 19 s
  190. Bit rate : 56 b/s
  191. Count of elements : 85
  192. Stream size : 3.03 KiB (0%)
  193. Language : Swedish
  194. Default : No
  195. Forced : No
复制代码

传奇4k Marvel.Studios.Legends.S01E01.2160p.DSNP.WEBRip.x265.10bit.HDR.DDP5.1.Atmos.美剧下载

传奇4k Marvel.Studios.Legends.S01E01.2160p.DSNP.WEBRip.x265.10bit.HDR.DDP5.1.Atmos【878.37 MB】
[Hao4k]传奇4k Marvel.Studios.Legends.S01E01.2160p.DSNP.WEBRip.x265.10bit.HDR.DDP.torrent (17.74 KB)
回复

使用道具 举报

全部回复13

zhchjun 发表于 2021-1-13 18:23:40

zhchjun 沙发

2021-1-13 18:23:40

不知有无中文字幕
回复 支持 反对

使用道具 举报

vincent4587 发表于 2021-1-13 20:42:05

vincent4587 板凳

2021-1-13 20:42:05

谢谢分享,不过据说评价不高啊
回复 支持 反对

使用道具 举报

zentteng 发表于 2021-1-14 01:10:19 Hao4K手机版

zentteng 地板

2021-1-14 01:10:19

求楼主分享甜蜜家园和爱丽丝的资源
回复 支持 反对

使用道具 举报

yangly 发表于 2021-1-14 12:10:54

yangly 6#

2021-1-14 12:10:54

谢谢分享好剧
回复 支持 反对

使用道具 举报

r31325 发表于 2021-1-14 21:06:21

r31325 7#

2021-1-14 21:06:21

名字很吸引人
回复 支持 反对

使用道具 举报

ovidsor 发表于 2021-1-16 22:00:03

ovidsor 8#

2021-1-16 22:00:03

这个。。。我居然都不知道有这么一部。。。
回复 支持 反对

使用道具 举报

neworange 发表于 6 天前

neworange 9#

6 天前

求本片字幕
回复 支持 反对

使用道具 举报

rstar7 发表于 5 天前

rstar7 10#

5 天前


感谢楼主  棒棒哒~~~
回复 支持 反对

使用道具 举报

ShengQ 发表于 4 天前

ShengQ 11#

4 天前

就是一官方混剪
回复 支持 反对

使用道具 举报

cc158602358 发表于 3 天前

cc158602358 12#

3 天前


不知有无中文字幕
回复 支持 反对

使用道具 举报

世爵39 发表于 前天 16:36

世爵39 14#

前天 16:36

免费分享好资源!!!
回复 支持 反对

使用道具 举报

   发表回复

您需要登录后才可以回帖 登录 | 立即注册

返回列表 本版积分规则

:
白银玩家
:
未填写

主题

帖子

积分940

图文推荐

  • 群晖、软路由、高清盒子、Web一个都不能少

    一篇就够了,群晖、软路由、高清盒子、Web一个都

  • 【转发】最强4K播放软件 CyberLink PowerDV

    [全球首发原创破解12月08日更新最新版本] PowerDV

  • 求变形金刚1~5五部顶部注解字幕合集

    就是在下面这个直播间看到好几次了,真的很喜欢,

  • 转一篇很有意思的文章:国内4K蓝光播放机的

    截至目前,能真正意义上生产4K 蓝光播放机(带光

  • 基于 PotPlayer 和 madVR 的播放器的设置教

    文章转载自:vcb-s Potplayer 是高清影视常用的

  • 在线客服

  • 返回顶部