微博 微信

Hao4K影音

电影频道
电影封面:
片  名: 国家宝藏4k
电影分类: 动作 冒险 惊悚 悬疑 
国  家: 美国 
年  代: 00年代
分 辨 率: 4K(3840x2160)
电影格式: MKV|REMUX 
画质标准: HDR 
音质编码: Dolby Digital Audio 
电影声道: 5.1声道 
帧数/FPS: 23.976 FPS
电影语言: 英文原版 
资源大小: 2.5 GB
导  演: 乔·德特杜巴
豆瓣评分: 7.7 分
中文字幕: /thread-53302-1-1.html
剧情简介: 盖茨家族是出名的冒险家家族。本(尼古拉斯•凯奇 Nicolas Cage 饰)小时候就获悉了他们家族的一个惊天秘密:美国开国时埋藏国家财富的地点就藏在《独立宣言》中。尽管父亲不想盖茨家族在纠缠于国家宝藏,但本还是与电脑高手雷利(贾斯汀•巴萨 Justin Bartha 饰)一起开始了寻宝行动。
  本的寻宝计划很快陷入了僵局。与此同时,英国富豪伊恩(肖恩•宾 Sean Bean 饰)也盯上了这个宝藏,他派人潜入了美国国家图书找寻《独立宣言》中宝藏的秘密并密谋对付本。图书馆的艾比嘉尔博士(戴安•克鲁格 Diane Kruger 饰)获悉了伊恩的险恶用心后,决心帮助本找到国家宝藏……
惊天夺宝(港) / 国家财宝/国家宝藏4k National Treasure 2004 2160p HDR 5.1 x265 10bit.电影信息
  1. Video
  2. ID : 1
  3. Format : HEVC
  4. Format/Info : High Efficiency Video Coding
  5. Codec ID : V_MPEGH/ISO/HEVC
  6. Duration : 2 h 11 min
  7. Bit rate : 2 324 kb/s
  8. Width : 3 840 pixels
  9. Height : 1 608 pixels
  10. Display aspect ratio : 2.40:1
  11. Frame rate mode : Constant
  12. Frame rate : 23.976 (24000/1001) FPS
  13. Color space : YUV
  14. Chroma subsampling : 4:2:0
  15. Bit depth : 10 bits
  16. Bits/(Pixel*Frame) : 0.016
  17. Stream size : 2.13 GiB (86%)
  18. Writing library : x265 3.2.1+1-b5c86a64bbbe:[Windows][GCC 9.2.0][64 bit] 10bit
  19. Color range : Full
  20. Color primaries : BT.2020
  21. Transfer characteristics : PQ
  22. Matrix coefficients : BT.2020 non-constant

  23. Audio
  24. ID : 2
  25. Format : AC-3
  26. Format/Info : Audio Coding 3
  27. Commercial name : Dolby Digital
  28. Codec ID : A_AC3
  29. Duration : 2 h 11 min
  30. Bit rate mode : Constant
  31. Bit rate : 320 kb/s
  32. Channel(s) : 6 channels
  33. Channel layout : L R C LFE Ls Rs
  34. Sampling rate : 48.0 kHz
  35. Frame rate : 31.250 FPS (1536 SPF)
  36. Compression mode : Lossy
  37. Delay relative to video : -5 ms
  38. Stream size : 300 MiB (12%)
  39. Title : Surround
  40. Language : English

  41. Text
  42. Language : English
  43. Language : Spanish
  44. Language : French
  45. Language : Dutch
  46. Default : No
  47. Forced : No
复制代码

惊天夺宝(港) / 国家财宝/国家宝藏4k National Treasure 2004 2160p HDR 5.1 x265 10bit.电影下载

国家宝藏4k National Treasure 2004 2160p HDR 5.1 x265 10bit【2.5 GB】
国家宝藏 4k.txt (89 Bytes)
回复

使用道具 举报

shako141 发表于 2021-1-18 10:27:48

shako141 推荐

2021-1-18 10:27:48

2.5G?估计比不了几十G的1080P清晰吧
回复 支持 2 反对 0

使用道具 举报

全部回复17

苏默金武 发表于 2021-1-15 13:40:05

苏默金武 沙发

2021-1-15 13:40:05

https://www.hao4k.cn/thread-53302-1-1.html 双语完美字幕,已提供下载!!!
回复 支持 反对

使用道具 举报

tomcatf 发表于 2021-1-17 00:59:35

tomcatf 地板

2021-1-17 00:59:35

2M的流码率,就算是H265的,也太低了点....
回复 支持 反对

使用道具 举报

tsuigeng 发表于 2021-1-17 10:26:21

tsuigeng 5#

2021-1-17 10:26:21

没看错吧?只有2.5G
回复 支持 反对

使用道具 举报

zst666 发表于 2021-1-17 15:24:19

zst666 6#

2021-1-17 15:24:19

期待已久,恺奇的经典。
回复 支持 反对

使用道具 举报

xy5971 发表于 2021-1-17 22:24:49

xy5971 7#

2021-1-17 22:24:49

感谢发布,虽然有点小
回复 支持 反对

使用道具 举报

concord3303 发表于 2021-1-18 12:19:08

concord3303 10#

2021-1-18 12:19:08

只有2.5G? 下载1080p吧!
回复 支持 反对

使用道具 举报

lywzj238 发表于 2021-1-19 13:49:12

lywzj238 11#

2021-1-19 13:49:12

谢谢分享好电影
回复 支持 反对

使用道具 举报

LENNY9527 发表于 2021-1-20 12:19:05

LENNY9527 12#

2021-1-20 12:19:05

感谢楼主的分享
回复 支持 反对

使用道具 举报

hu58 发表于 2021-1-20 23:17:31

hu58 13#

2021-1-20 23:17:31

这种假4k就算了吧
回复 支持 反对

使用道具 举报

lywzj238 发表于 2021-1-21 08:14:05

lywzj238 14#

2021-1-21 08:14:05

谢谢分享好电影
回复 支持 反对

使用道具 举报

chuchan1 发表于 2021-1-22 18:24:45

chuchan1 15#

2021-1-22 18:24:45

感谢楼主免费分享好资源!!!
回复 支持 反对

使用道具 举报

lywzj238 发表于 2021-1-23 12:00:15

lywzj238 16#

2021-1-23 12:00:15

谢谢分享好电影
回复 支持 反对

使用道具 举报

mftz 发表于 2021-1-26 14:26:47

mftz 17#

2021-1-26 14:26:47

想看,谢谢分享!
回复 支持 反对

使用道具 举报

mftz 发表于 2021-1-26 14:27:19

mftz 18#

2021-1-26 14:27:19

最经典的电影之一!
回复 支持 反对

使用道具 举报

   发表回复

您需要登录后才可以回帖 登录 | 立即注册

返回列表 本版积分规则

  • 在线客服

  • 返回顶部