微博 微信

Hao4K影音

电影频道
电影封面:
片  名: 迈阿密的一夜4K
电影分类: 剧情 
国  家: 美国 
年  代: 2020年
分 辨 率: 4K(3840x2160)
电影格式: MKV|REMUX 
画质标准: HDR 
音质编码: Dolby Digital Plus Audio 其他AAC 
电影声道: 5.1声道 
帧数/FPS: 23.976 FPS
电影语言: 中文简体 中文繁体 英文原版 
资源大小: 12.38 GB
导  演: 雷吉娜·金
豆瓣评分: 6.1 分
中文字幕: /thread-53330-1-1.html
剧情简介: 获得奥斯卡最佳女配角奖的演员雷吉娜·金将执导电影《迈阿密的一夜》( One Night in Miami),改编自肯普·鲍尔斯处女剧作的舞台剧。现在肯普·鲍尔斯已经将原本的舞台剧剧本改写成了电影剧本。
  故事发生在1964年2月25日的夜晚,年轻的卡修斯·克莱击败了桑尼·利斯顿成为世界重量级拳击冠军,却因种族隔离法律无法留在迈阿密的岛上,只能在市郊的汉普顿旅馆与三个朋友激进分子马尔科姆·艾克斯、歌手山姆·库克和足球明星吉姆·布朗共同庆祝和过夜。
迈阿密的一夜4K.One.Night.in.Miami.2020.HDR.2160p.WEB.H265-NAISU-4k电影信息
  1. Video
  2. ID : 1
  3. Format : HEVC
  4. Format/Info : High Efficiency Video Coding
  5. Format profile : Main 10@L5@Main
  6. HDR format : SMPTE ST 2094 App 4, Version 1, HDR10+ Profile B compatible
  7. Codec ID : V_MPEGH/ISO/HEVC
  8. Duration : 1 h 54 min
  9. Bit rate : 14.4 Mb/s
  10. Width : 3 840 pixels
  11. Height : 1 600 pixels
  12. Display aspect ratio : 2.40:1
  13. Frame rate mode : Constant
  14. Frame rate : 23.976 (24000/1001) FPS
  15. Color space : YUV
  16. Chroma subsampling : 4:2:0
  17. Bit depth : 10 bits
  18. Bits/(Pixel*Frame) : 0.098
  19. Stream size : 11.5 GiB (94%)
  20. Default : Yes
  21. Forced : No
  22. Color range : Limited
  23. Color primaries : BT.2020
  24. Transfer characteristics : PQ
  25. Matrix coefficients : BT.2020 non-constant
  26. Mastering display color primaries : Display P3
  27. Mastering display luminance : min: 0.0001 cd/m2, max: 1000 cd/m2
  28. Maximum Content Light Level : 955 cd/m2
  29. Maximum Frame-Average Light Level : 187 cd/m2

  30. Audio
  31. ID : 2
  32. Format : E-AC-3
  33. Format/Info : Enhanced AC-3
  34. Commercial name : Dolby Digital Plus
  35. Codec ID : A_EAC3
  36. Duration : 1 h 54 min
  37. Bit rate mode : Constant
  38. Bit rate : 640 kb/s
  39. Channel(s) : 6 channels
  40. Channel layout : L R C LFE Ls Rs
  41. Sampling rate : 48.0 kHz
  42. Frame rate : 31.250 FPS (1536 SPF)
  43. Compression mode : Lossy
  44. Stream size : 523 MiB (4%)
  45. Language : English
  46. Service kind : Complete Main
  47. Default : Yes
  48. Forced : No

  49. Text #1
  50. ID : 3
  51. Format : UTF-8
  52. Codec ID : S_TEXT/UTF8
  53. Codec ID/Info : UTF-8 Plain Text
  54. Title : English
  55. Language : English
  56. Default : No
  57. Forced : No

  58. Text #2
  59. ID : 4
  60. Format : UTF-8
  61. Codec ID : S_TEXT/UTF8
  62. Codec ID/Info : UTF-8 Plain Text
  63. Title : Arabic
  64. Language : Arabic
  65. Default : No
  66. Forced : No

  67. Text #3
  68. ID : 5
  69. Format : UTF-8
  70. Codec ID : S_TEXT/UTF8
  71. Codec ID/Info : UTF-8 Plain Text
  72. Title : Danish
  73. Language : Danish
  74. Default : No
  75. Forced : No

  76. Text #4
  77. ID : 6
  78. Format : UTF-8
  79. Codec ID : S_TEXT/UTF8
  80. Codec ID/Info : UTF-8 Plain Text
  81. Title : German
  82. Language : German
  83. Default : No
  84. Forced : No

  85. Text #5
  86. ID : 7
  87. Format : UTF-8
  88. Codec ID : S_TEXT/UTF8
  89. Codec ID/Info : UTF-8 Plain Text
  90. Title : Latin America Spanish
  91. Language : Spanish
  92. Default : No
  93. Forced : No

  94. Text #6
  95. ID : 8
  96. Format : UTF-8
  97. Codec ID : S_TEXT/UTF8
  98. Codec ID/Info : UTF-8 Plain Text
  99. Title : European Spanish
  100. Language : Spanish
  101. Default : No
  102. Forced : No

  103. Text #28
  104. ID : 30
  105. Format : UTF-8
  106. Codec ID : S_TEXT/UTF8
  107. Codec ID/Info : UTF-8 Plain Text
  108. Title : Chinese Simplified
  109. Language : Chinese
  110. Default : No
  111. Forced : No

  112. Text #29
  113. ID : 31
  114. Format : UTF-8
  115. Codec ID : S_TEXT/UTF8
  116. Codec ID/Info : UTF-8 Plain Text
  117. Title : Chinese Traditional
  118. Language : Chinese
  119. Default : No
  120. Forced : No
复制代码
迈阿密的一夜4K.One.Night.in.Miami.2020.HDR.2160p.WEB.H265-NAISU-4K电影下载
迈阿密的一夜4K.One.Night.in.Miami.2020.HDR.2160p.WEB.H265[带简繁中字]【4K HDR 12.38 GB】
[Hao4K]迈阿密的一夜4K.One.Night.in.Miami.2020.HDR.2160p.WEB.H265-NAISU.torrent (62.58 KB, 售价: 2 K币)
回复

使用道具 举报

全部回复16

litiangui 发表于 2021-1-15 16:13:29

litiangui 沙发

2021-1-15 16:13:29

谢谢分享 阿里嘎多!
回复 支持 反对

使用道具 举报

LENNY9527 发表于 2021-1-15 16:21:55

LENNY9527 板凳

2021-1-15 16:21:55

感谢分享,收藏一波
回复 支持 反对

使用道具 举报

bbgrnnji 发表于 2021-1-15 17:57:20

bbgrnnji 地板

2021-1-15 17:57:20

容量不大也有不大的好处
回复 支持 反对

使用道具 举报

yingxiong_2 发表于 2021-1-16 09:30:25

yingxiong_2 5#

2021-1-16 09:30:25

喜欢这种容量的,太大硬盘吃不消
回复 支持 反对

使用道具 举报

xxw8888 发表于 2021-1-16 12:57:32 Hao4K手机版

xxw8888 6#

2021-1-16 12:57:32

谢谢分享,收藏了
回复 支持 反对

使用道具 举报

panbell 发表于 2021-1-16 15:58:05

panbell 8#

2021-1-16 15:58:05

好资源 感谢分享
回复 支持 反对

使用道具 举报

itqyc 发表于 2021-1-16 21:44:22

itqyc 9#

2021-1-16 21:44:22

谢谢分享,收藏了
回复 支持 反对

使用道具 举报

max666888 发表于 2021-1-17 18:44:19

max666888 10#

2021-1-17 18:44:19

容量不大也有不大的好处
回复 支持 反对

使用道具 举报

phskytom 发表于 2021-1-19 08:45:56

phskytom 12#

2021-1-19 08:45:56

下来看看,谢谢了
回复 支持 反对

使用道具 举报

cb917918 发表于 2021-1-19 15:35:40

cb917918 13#

2021-1-19 15:35:40

谢谢分享,楼主辛苦了
回复 支持 反对

使用道具 举报

atie8351 发表于 2021-1-21 17:19:02

atie8351 14#

2021-1-21 17:19:02

不错,感谢分享
回复 支持 反对

使用道具 举报

chuchan1 发表于 2021-1-24 18:12:04

chuchan1 15#

2021-1-24 18:12:04


感谢分享,辛苦了
回复 支持 反对

使用道具 举报

chuchan1 发表于 2021-1-25 09:57:09

chuchan1 16#

2021-1-25 09:57:09

感谢分享,辛苦了
回复 支持 反对

使用道具 举报

liaobamboo 发表于 2021-2-14 22:02:20

liaobamboo 17#

2021-2-14 22:02:20

阿里嘎多。收藏。
回复 支持 反对

使用道具 举报

   发表回复

您需要登录后才可以回帖 登录 | 立即注册

返回列表 本版积分规则

  • 在线客服

  • 返回顶部