微博 微信

Hao4K影音

[美剧] 旺达幻视4k WandaVision.S01E01.2160p.美剧下载

2021-1-18 07:59:49 322860 60 |只看大图 回帖奖励 |倒序浏览 |阅读模式

大红色 楼主

2021-1-15 22:04:54

电视剧频道
电视剧封面:
电视剧名: 旺达幻视4k
年  代: 2021  
国  家: 美国
类  别: 动作 科幻 爱情 
语  言: 英语
字  幕: 英文原版
上映日期: 2021-01-15
文件格式: mkv    
视频效果: 4K(3840x2160)    
资源大小: 2.96 GB
片  长: 30 分钟
导  演: 马特·沙克曼
剧情简介: 伊丽莎白·奥尔森、保罗·贝坦尼、凯瑟琳·哈恩、凯特·戴琳斯主演漫威新剧《旺达幻视》定档,将于明年1月15日在美国网络上线。本季共9集,围绕幻视和猩红女巫的爱情和冒险展开。
旺达·幻视 / 幻视与绯红女巫 / 幻视与猩红女巫 / 旺达幻象 / 旺达与幻视 / Vision and the Scarlet Witch / Wanda Vision / Wanda Maximoff and The Vision/旺达幻视4k WandaVision.S01E01.2160p.DSNP.WEBRip.x265.10bit.HDR.DDP5.1.Atmos.美剧信息
  1. Video
  2. ID : 1
  3. Format : HEVC
  4. Format/Info : High Efficiency Video Coding
  5. Format profile : Main 10@L5@High
  6. Codec ID : V_MPEGH/ISO/HEVC
  7. Duration : 26 min 36 s
  8. Bit rate : 15.1 Mb/s
  9. Width : 3 840 pixels
  10. Height : 2 160 pixels
  11. Display aspect ratio : 16:9
  12. Frame rate mode : Constant
  13. Frame rate : 23.976 (24000/1001) FPS
  14. Color space : YUV
  15. Chroma subsampling : 4:2:0
  16. Bit depth : 10 bits
  17. Bits/(Pixel*Frame) : 0.076
  18. Stream size : 2.81 GiB (95%)
  19. Default : Yes
  20. Forced : No
  21. Color range : Limited
  22. Color primaries : BT.2020
  23. Transfer characteristics : PQ
  24. Matrix coefficients : BT.2020 non-constant

  25. Audio
  26. ID : 2
  27. Format : E-AC-3 JOC
  28. Format/Info : Enhanced AC-3 with Joint Object Coding
  29. Commercial name : Dolby Digital Plus with Dolby Atmos
  30. Codec ID : A_EAC3
  31. Duration : 26 min 36 s
  32. Bit rate mode : Constant
  33. Bit rate : 768 kb/s
  34. Channel(s) : 6 channels
  35. Channel layout : L R C LFE Ls Rs
  36. Sampling rate : 48.0 kHz
  37. Frame rate : 31.250 FPS (1536 SPF)
  38. Compression mode : Lossy
  39. Stream size : 146 MiB (5%)
  40. Title : English
  41. Language : English
  42. Service kind : Complete Main
  43. Default : No
  44. Forced : No
  45. Complexity index : 16
  46. Number of dynamic objects : 15
  47. Bed channel count : 1 channel
  48. Bed channel configuration : LFE

  49. Text #1
  50. ID : 3
  51. Format : UTF-8
  52. Codec ID : S_TEXT/UTF8
  53. Codec ID/Info : UTF-8 Plain Text
  54. Duration : 25 min 44 s
  55. Bit rate : 67 b/s
  56. Count of elements : 413
  57. Stream size : 12.8 KiB (0%)
  58. Title : Brazilian Portuguese
  59. Language : Portuguese
  60. Default : No
  61. Forced : No

  62. Text #2
  63. ID : 4
  64. Format : UTF-8
  65. Codec ID : S_TEXT/UTF8
  66. Codec ID/Info : UTF-8 Plain Text
  67. Duration : 21 min 42 s
  68. Bit rate : 66 b/s
  69. Count of elements : 376
  70. Stream size : 10.6 KiB (0%)
  71. Title : French Canadian
  72. Language : French
  73. Default : No
  74. Forced : No

  75. Text #3
  76. ID : 5
  77. Format : UTF-8
  78. Codec ID : S_TEXT/UTF8
  79. Codec ID/Info : UTF-8 Plain Text
  80. Duration : 25 min 47 s
  81. Bit rate : 57 b/s
  82. Count of elements : 270
  83. Stream size : 10.9 KiB (0%)
  84. Title : Danish
  85. Language : Danish
  86. Default : No
  87. Forced : No

  88. Text #4
  89. ID : 6
  90. Format : UTF-8
  91. Codec ID : S_TEXT/UTF8
  92. Codec ID/Info : UTF-8 Plain Text
  93. Duration : 25 min 44 s
  94. Bit rate : 60 b/s
  95. Count of elements : 367
  96. Stream size : 11.4 KiB (0%)
  97. Title : German
  98. Language : German
  99. Default : No
  100. Forced : No

  101. Text #5
  102. ID : 7
  103. Format : UTF-8
  104. Codec ID : S_TEXT/UTF8
  105. Codec ID/Info : UTF-8 Plain Text
  106. Duration : 21 min 0 s
  107. Bit rate : 92 b/s
  108. Count of elements : 448
  109. Stream size : 14.2 KiB (0%)
  110. Title : English [SDH]
  111. Language : English
  112. Default : No
  113. Forced : No

  114. Text #6
  115. ID : 8
  116. Format : UTF-8
  117. Codec ID : S_TEXT/UTF8
  118. Codec ID/Info : UTF-8 Plain Text
  119. Duration : 20 min 57 s
  120. Bit rate : 87 b/s
  121. Count of elements : 413
  122. Stream size : 13.4 KiB (0%)
  123. Title : English
  124. Language : English
  125. Default : No
  126. Forced : No

  127. Text #7
  128. ID : 9
  129. Format : UTF-8
  130. Codec ID : S_TEXT/UTF8
  131. Codec ID/Info : UTF-8 Plain Text
  132. Duration : 25 min 44 s
  133. Bit rate : 66 b/s
  134. Count of elements : 410
  135. Stream size : 12.5 KiB (0%)
  136. Title : European Spanish
  137. Language : Spanish
  138. Default : No
  139. Forced : No

  140. Text #8
  141. ID : 10
  142. Format : UTF-8
  143. Codec ID : S_TEXT/UTF8
  144. Codec ID/Info : UTF-8 Plain Text
  145. Duration : 25 min 45 s
  146. Bit rate : 56 b/s
  147. Count of elements : 408
  148. Stream size : 10.6 KiB (0%)
  149. Title : Finnish
  150. Language : Finnish
  151. Default : No
  152. Forced : No

  153. Text #9
  154. ID : 11
  155. Format : UTF-8
  156. Codec ID : S_TEXT/UTF8
  157. Codec ID/Info : UTF-8 Plain Text
  158. Duration : 25 min 44 s
  159. Bit rate : 56 b/s
  160. Count of elements : 377
  161. Stream size : 10.6 KiB (0%)
  162. Title : French
  163. Language : French
  164. Default : No
  165. Forced : No

  166. Text #10
  167. ID : 12
  168. Format : UTF-8
  169. Codec ID : S_TEXT/UTF8
  170. Codec ID/Info : UTF-8 Plain Text
  171. Duration : 25 min 47 s
  172. Bit rate : 59 b/s
  173. Count of elements : 413
  174. Stream size : 11.3 KiB (0%)
  175. Title : Italian
  176. Language : Italian
  177. Default : No
  178. Forced : No

  179. Text #11
  180. ID : 13
  181. Format : UTF-8
  182. Codec ID : S_TEXT/UTF8
  183. Codec ID/Info : UTF-8 Plain Text
  184. Duration : 25 min 44 s
  185. Bit rate : 59 b/s
  186. Count of elements : 340
  187. Stream size : 11.2 KiB (0%)
  188. Title : Dutch
  189. Language : Dutch
  190. Default : No
  191. Forced : No

  192. Text #12
  193. ID : 14
  194. Format : UTF-8
  195. Codec ID : S_TEXT/UTF8
  196. Codec ID/Info : UTF-8 Plain Text
  197. Duration : 25 min 45 s
  198. Bit rate : 55 b/s
  199. Count of elements : 408
  200. Stream size : 10.5 KiB (0%)
  201. Title : Norwegian
  202. Language : Norwegian
  203. Default : No
  204. Forced : No

  205. Text #13
  206. ID : 15
  207. Format : UTF-8
  208. Codec ID : S_TEXT/UTF8
  209. Codec ID/Info : UTF-8 Plain Text
  210. Duration : 25 min 44 s
  211. Bit rate : 64 b/s
  212. Count of elements : 380
  213. Stream size : 12.1 KiB (0%)
  214. Title : Portuguese
  215. Language : Portuguese
  216. Default : No
  217. Forced : No

  218. Text #14
  219. ID : 16
  220. Format : UTF-8
  221. Codec ID : S_TEXT/UTF8
  222. Codec ID/Info : UTF-8 Plain Text
  223. Duration : 25 min 44 s
  224. Bit rate : 63 b/s
  225. Count of elements : 405
  226. Stream size : 12.0 KiB (0%)
  227. Title : Spanish
  228. Language : Spanish
  229. Default : No
  230. Forced : No

  231. Text #15
  232. ID : 17
  233. Format : UTF-8
  234. Codec ID : S_TEXT/UTF8
  235. Codec ID/Info : UTF-8 Plain Text
  236. Duration : 25 min 44 s
  237. Bit rate : 62 b/s
  238. Count of elements : 329
  239. Stream size : 11.7 KiB (0%)
  240. Title : Swedish
  241. Language : Swedish
  242. Default : No
  243. Forced : No
复制代码

旺达·幻视 / 幻视与绯红女巫 / 幻视与猩红女巫 / 旺达幻象 / 旺达与幻视 / Vision and the Scarlet Witch / Wanda Vision / Wanda Maximoff and The Vision/旺达幻视4k WandaVision.S01E01.2160p.DSNP.WEBRip.x265.10bit.HDR.DDP5.1.Atmos.美剧下载

旺达幻视4k WandaVision.S01E01.2160p.DSNP.WEBRip.x265.10bit.HDR.DDP5.1.Atmos【2.96 GB】
[Hao4k]旺达幻视4k WandaVision.S01E01.2160p.DSNP.WEBRip.x265.10bit.HDR.DDP5.1.Atm.torrent (30.13 KB)
回复

使用道具 举报

13556701581HH 发表于 2021-1-22 18:08:56

13556701581HH 推荐

2021-1-22 18:08:56

第三集 magnet:?xt=urn:btih:3D1428DEC551DA9F83BC1A1DB3DA172A6095B134
回复 支持 9 反对 0

使用道具 举报

Nown 发表于 2021-2-12 23:20:47

Nown 推荐

2021-2-12 23:20:47

第六集出了吗?
回复 支持 3 反对 0

使用道具 举报

rockchen007 发表于 2021-2-17 23:52:13

rockchen007 推荐

2021-2-17 23:52:13

第六集杜比视界:magnet:?xt=urn:btih:5894eda886c2e00663c6e9752bb738fd7415e159&dn=WandaVision.S01E06.2160p.WEB-DL.DDP5.1.Atmos.DV.x265-ZTV%5Brartv%5D&tr=http%3A%2F%2Ftracker.trackerfix.com%3A80%2Fannounce&tr=udp%3A%2F%2F9.rarbg.me%3A2800&tr=udp%3A%2F%2F9.rarbg.to%3A2790 拿好不谢
回复 支持 0 反对 1

使用道具 举报

hui1265808 发表于 2021-2-12 20:40:17 Hao4K手机版

hui1265808 推荐

2021-2-12 20:40:17

第六集什么时候出来呀
回复 支持 1 反对 0

使用道具 举报

hAo_Z 发表于 2021-1-29 17:05:40

hAo_Z 推荐

2021-1-29 17:05:40

楼主nb!! 十分感谢!还有自带的英文字幕,太方便了。
回复 支持 1 反对 0

使用道具 举报

yangzfan2018 发表于 2021-1-29 18:32:01

yangzfan2018 推荐

2021-1-29 18:32:01

WandaVision S01E04 Episode 4 2160p

magnet:?xt=urn:btih:418F7F9A397ED2697DEC30313E42F6096B3EF4B0
回复 支持 1 反对 0

使用道具 举报

rockchen007 发表于 2021-1-15 22:58:32

rockchen007 8#

2021-1-15 22:58:32

这就很舒服~感谢楼主 NO.1
回复 支持 反对

使用道具 举报

qutian852 发表于 2021-1-15 23:27:07

qutian852 9#

2021-1-15 23:27:07

有字幕吗 我的大神
回复 支持 反对

使用道具 举报

Gin693 发表于 2021-1-16 02:32:06 Hao4K手机版

Gin693 11#

2021-1-16 02:32:06

顶顶顶,真快
回复 支持 反对

使用道具 举报

ZombieNight 发表于 2021-1-16 07:44:50 Hao4K手机版

ZombieNight 12#

2021-1-16 07:44:50

这个终于来了
回复 支持 反对

使用道具 举报

leopold927 发表于 2021-1-16 08:43:01

leopold927 13#

2021-1-16 08:43:01

谢谢分享好剧
回复 支持 反对

使用道具 举报

blucesky 发表于 2021-1-16 08:46:44

blucesky 14#

2021-1-16 08:46:44

感谢楼主分享高清资源
回复 支持 反对

使用道具 举报

曾经年轻 发表于 2021-1-16 15:05:39

曾经年轻 15#

2021-1-16 15:05:39

感谢楼主无私分享           
回复 支持 反对

使用道具 举报

414158862 发表于 2021-1-16 17:39:23

414158862 16#

2021-1-16 17:39:23

谢谢楼主 正在下载
回复 支持 反对

使用道具 举报

ovidsor 发表于 2021-1-16 21:44:54

ovidsor 17#

2021-1-16 21:44:54

厉害厉害,激动不已啊!漫威宇宙的剧情终于又一次开始向前推进了!
回复 支持 反对

使用道具 举报

lhy921129 发表于 2021-1-17 11:41:10

lhy921129 19#

2021-1-17 11:41:10


感谢楼主分享高清资源
回复 支持 反对

使用道具 举报

犀牛 发表于 2021-1-17 15:02:17

犀牛 20#

2021-1-17 15:02:17

这个太棒了,没有新电影,这个解解渴
回复 支持 反对

使用道具 举报

ttdwht 发表于 2021-1-17 17:31:49

ttdwht 21#

2021-1-17 17:31:49

感谢楼主分享高清资源
回复 支持 反对

使用道具 举报

丿海阔天空 发表于 2021-1-17 18:21:22

丿海阔天空 22#

2021-1-17 18:21:22

字幕有没有呢?
回复 支持 反对

使用道具 举报

Gin693 发表于 2021-1-18 02:30:28 Hao4K手机版

Gin693 23#

2021-1-18 02:30:28

感谢楼主分享
回复 支持 反对

使用道具 举报

木须龙 发表于 2021-1-18 07:59:49

木须龙 24#

2021-1-18 07:59:49

电影里的绯红女巫漂亮
回复 支持 反对

使用道具 举报

   发表回复

您需要登录后才可以回帖 登录 | 立即注册

返回列表 本版积分规则

:
白银玩家
:
未填写

主题

帖子

积分995

图文推荐

  • 姜子牙原盘(非4k)出来了,前面花絮很多

    姜子牙的原盘出来了,有闲空可以下来看看,前面的

  • 刚买了个好东西:16T的单碟移动硬盘。

    刚买了个好东西:16T的单碟移动硬盘。中亚上买的

  • 【美影 4K】亡命驾驶将重制发布4K UHD蓝光

    最新消息:2011年美国动作/犯罪片《亡命驾驶》将

  • 2021年初,涉及家庭影院4K HDR领域,Yuran

    还是那句话,特别忙。加班加点、又得挑灯夜战钻研

  • 【4K视频剪辑软件合辑】4k视频剪辑软件下载

    很多4K朋友在hao4k官方qq群问我4k视频剪辑软件哪

  • 在线客服

  • 返回顶部