微博 微信

Hao4K影音

[美剧] 傲慢与偏见4k Pride.And.Prejudice.S01.2160p.美剧下载

2021-2-9 20:17:41 34674 18 |只看大图 回帖奖励 |倒序浏览 |阅读模式

大红色 楼主

2021-1-17 10:53:48

电视剧频道
电视剧封面:
电视剧名: 傲慢与偏见4k
年  代: 90年代  
国  家: 美国
类  别: 剧情 爱情 
语  言: 英语
字  幕: -
上映日期: 1995-09-24
文件格式: mkv    
视频效果: 4K(3840x2160)    
资源大小: 49.81 GB
片  长: 55 分钟
导  演: 西蒙·兰顿
剧情简介: 《傲慢与偏见》是简·奥斯汀的代表作。这部作品曾多次被改编的电影,本片为英国BBC公司1995年出品。
  18世纪英国乡间班纳特家有五个女儿,班纳特太太整天焦躁不已,最大的心愿就是将女儿们一个个嫁出去。一日年青富家子宾利先生搬进城内的消息传来,令班纳特太太兴奋不已,希望大女儿简能获取宾利先生青睐。舞会上宾利果然看上了最漂亮的大小姐。而宾利的老友达西(柯林·菲尔斯 Colin Firth 饰)却天性傲慢,直言难与平民交往,更不屑与老二伊丽莎白跳舞(詹妮弗·艾莉 Jennifer Ehle 饰)。可不久达西对她活泼可爱的举止产生了好感。达西虽然欣赏伊丽莎白,却无法忍受她母亲及妹妹们粗俗无礼的举止,劝说宾利放弃娶简。宾格来和简因为误会,关系危在旦夕,伊丽莎白也因为这件事迁怒于达西。最终班纳特能否顺利嫁出五个女儿,宾格来与简、达西与伊丽莎白会不会从迷失中走来,缔结幸福良缘?
傲慢与偏见 BBC版 / 傲慢与偏见(迷你剧) / Jane Austen's Pride and Prejudice/傲慢与偏见4k Pride.And.Prejudice.S01.2160p.WEBRip.x265.10bit.HDR.HLG.TrueHD.5.1.美剧下载
  1. Video
  2. ID : 1
  3. Format : HEVC
  4. Format/Info : High Efficiency Video Coding
  5. Codec ID : V_MPEGH/ISO/HEVC
  6. Duration : 53 min 15 s
  7. Bit rate : 18.7 Mb/s
  8. Width : 3 840 pixels
  9. Height : 2 160 pixels
  10. Display aspect ratio : 16:9
  11. Frame rate mode : Constant
  12. Frame rate : 25.000 FPS
  13. Standard : Component
  14. Color space : YUV
  15. Chroma subsampling : 4:2:0
  16. Bit depth : 10 bits
  17. Bits/(Pixel*Frame) : 0.090
  18. Stream size : 6.97 GiB (81%)
  19. Title : MPEG-H HEVC Video / 18725 kbps / 2160p / 25.000 fps / 16:9 / Main 10 [url=home.php?mod=space&uid=173791]@[/url] Level 5.1 @ Main / 4:2:0 / 10 bits / HLG / BT.2020
  20. Language : English
  21. Default : Yes
  22. Forced : No
  23. Color range : Limited
  24. Color primaries : BT.2020
  25. Transfer characteristics : HLG
  26. transfer_characteristics_Original : HLG / BT.2020 (10-bit)
  27. Matrix coefficients : BT.2020 non-constant

  28. Audio #1
  29. ID : 2
  30. Format : MLP FBA
  31. Format/Info : Meridian Lossless Packing FBA
  32. Commercial name : Dolby TrueHD
  33. Codec ID : A_TRUEHD
  34. Duration : 53 min 17 s
  35. Bit rate mode : Variable
  36. Bit rate : 1 517 kb/s
  37. Maximum bit rate : 2 100 kb/s
  38. Channel(s) : 6 channels
  39. Channel layout : L R C LFE Ls Rs
  40. Sampling rate : 48.0 kHz
  41. Frame rate : 1 200.000 FPS (40 SPF)
  42. Compression mode : Lossless
  43. Stream size : 578 MiB (7%)
  44. Title : Dolby TrueHD Audio / 5.1 / 48 kHz / 1517 kbps / 16-bit
  45. Language : English
  46. Default : Yes
  47. Forced : No

  48. Audio #2
  49. ID : 3
  50. Format : AC-3
  51. Format/Info : Audio Coding 3
  52. Commercial name : Dolby Digital
  53. Codec ID : A_AC3
  54. Duration : 53 min 17 s
  55. Bit rate mode : Constant
  56. Bit rate : 448 kb/s
  57. Channel(s) : 6 channels
  58. Channel layout : L R C LFE Ls Rs
  59. Sampling rate : 48.0 kHz
  60. Frame rate : 31.250 FPS (1536 SPF)
  61. Compression mode : Lossy
  62. Stream size : 171 MiB (2%)
  63. Title : Compatibility Track / Dolby Digital Audio / 5.1 / 48 kHz / 448 kbps
  64. Language : English
  65. Service kind : Complete Main
  66. Default : No
  67. Forced : No

  68. Audio #3
  69. ID : 4
  70. Format : PCM
  71. Format settings : Little / Signed
  72. Codec ID : A_PCM/INT/LIT
  73. Duration : 53 min 21 s
  74. Bit rate mode : Constant
  75. Bit rate : 2 304 kb/s
  76. Channel(s) : 2 channels
  77. Sampling rate : 48.0 kHz
  78. Frame rate : 32.000 FPS (1500 SPF)
  79. Bit depth : 24 bits
  80. Delay relative to video : 13 ms
  81. Stream size : 879 MiB (10%)
  82. Title : Original Stereo Mix / LPCM 2.0 / 48 kHz / 2304 kbps / 24-bit
  83. Language : English
  84. Default : No
  85. Forced : No

  86. Text #1
  87. ID : 5
  88. Format : UTF-8
  89. Codec ID : S_TEXT/UTF8
  90. Codec ID/Info : UTF-8 Plain Text
  91. Duration : 51 min 6 s
  92. Bit rate : 71 b/s
  93. Count of elements : 608
  94. Stream size : 26.6 KiB (0%)
  95. Language : English
  96. Default : No
  97. Forced : No

  98. Text #2
  99. ID : 6
  100. Format : UTF-8
  101. Codec ID : S_TEXT/UTF8
  102. Codec ID/Info : UTF-8 Plain Text
  103. Duration : 51 min 6 s
  104. Bit rate : 72 b/s
  105. Count of elements : 613
  106. Stream size : 27.1 KiB (0%)
  107. Title : SDH
  108. Language : English
  109. Default : No
  110. Forced : No

  111. Menu
  112. 00:00:00.880 : en:A good mans fortune
  113. 00:09:54.480 : en:A strong constitution
  114. 00:21:24.079 : en:Party at Lucas Lodge
  115. 00:32:40.359 : en:Jane Takes Ill
  116. 00:39:51.679 : en:An Accomplished Woman
  117. 00:46:54.719 : en:A Man Without Fault
  118. 00:52:09.679 : en:End Credits
复制代码

傲慢与偏见 BBC版 / 傲慢与偏见(迷你剧) / Jane Austen's Pride and Prejudice/傲慢与偏见4k Pride.And.Prejudice.S01.2160p.WEBRip.x265.10bit.HDR.HLG.TrueHD.5.1.美剧下载

傲慢与偏见4k Pride.And.Prejudice.S01.2160p.WEBRip.x265.10bit.HDR.HLG.TrueHD.5.1.【49.81 GB】
[Hao4k]傲慢与偏见4k Pride.And.Prejudice.S01.2160p.WEBRip.x265.10bit.HDR.HLG.True.torrent (125.61 KB)
回复

使用道具 举报

123zzy 发表于 2021-1-18 22:07:38

123zzy 推荐

2021-1-18 22:07:38

跟黑水仙4k版本的一样。字幕完全对不上。并非简单地调整时间轴那么简单。
回复 支持 1 反对 0

使用道具 举报

全部回复18

vincent4587 发表于 2021-1-17 11:29:08

vincent4587 沙发

2021-1-17 11:29:08

可以的,这个终于出来了
回复 支持 反对

使用道具 举报

开心加菲 发表于 2021-1-17 19:09:08

开心加菲 板凳

2021-1-17 19:09:08

太好了,万分感谢
回复 支持 反对

使用道具 举报

清真之旅 发表于 2021-1-17 21:16:07

清真之旅 地板

2021-1-17 21:16:07

谢谢了,这个版本评价是最高的。
回复 支持 反对

使用道具 举报

gsxbp@163.com 发表于 2021-1-18 08:53:21

gsxbp@163.com 5#

2021-1-18 08:53:21

正好欣赏一下名著
回复 支持 反对

使用道具 举报

hqpeiyu 发表于 2021-1-18 09:05:54

hqpeiyu 6#

2021-1-18 09:05:54

谢谢老铁!!!之前找的完全不清楚,终于等到4K了
回复 支持 反对

使用道具 举报

清真之旅 发表于 2021-1-18 20:47:06

清真之旅 7#

2021-1-18 20:47:06

有个问题出来了,字幕对不上,应该是帧率不对
回复 支持 反对

使用道具 举报

movie_music 发表于 2021-1-21 15:33:04

movie_music 9#

2021-1-21 15:33:04

听说是最经典的版本,评分很高,正好没看过,支持!大家一起来加速吧!
回复 支持 反对

使用道具 举报

allenwml 发表于 2021-1-28 23:45:13

allenwml 10#

2021-1-28 23:45:13

据说这个版本评价是最高的
回复 支持 反对

使用道具 举报

wpzin 发表于 2021-1-31 19:24:14

wpzin 11#

2021-1-31 19:24:14

有中文字幕吗?
回复 支持 反对

使用道具 举报

吴摔锅 发表于 2021-1-31 23:13:40

吴摔锅 12#

2021-1-31 23:13:40

清真之旅 发表于 2021-1-18 20:47
有个问题出来了,字幕对不上,应该是帧率不对

这就尴尬了。
回复 支持 反对

使用道具 举报

0573y 发表于 2021-2-1 16:28:14

0573y 13#

2021-2-1 16:28:14

重温一下名著
回复 支持 反对

使用道具 举报

aaxiaoguang 发表于 2021-2-1 20:31:07

aaxiaoguang 14#

2021-2-1 20:31:07

有中文字幕吗 老字幕对不上了
回复 支持 反对

使用道具 举报

ywf6168 发表于 2021-2-3 13:10:22

ywf6168 15#

2021-2-3 13:10:22

重温一下名著
回复 支持 反对

使用道具 举报

吴摔锅 发表于 2021-2-5 13:12:47

吴摔锅 16#

2021-2-5 13:12:47

只有英文字幕,1080bluray的字幕时间轴不对。
回复 支持 反对

使用道具 举报

吴摔锅 发表于 2021-2-5 13:13:31

吴摔锅 17#

2021-2-5 13:13:31

123zzy 发表于 2021-1-18 22:07
跟黑水仙4k版本的一样。字幕完全对不上。并非简单地调整时间轴那么简单。

应该是帧数的问题吧。
回复 支持 反对

使用道具 举报

able 发表于 2021-2-9 20:17:41

able 18#

2021-2-9 20:17:41

谢谢楼主!
回复 支持 反对

使用道具 举报

   发表回复

您需要登录后才可以回帖 登录 | 立即注册

返回列表 本版积分规则

:
白银玩家
:
未填写

主题

帖子

积分995

图文推荐

  • 姜子牙原盘(非4k)出来了,前面花絮很多

    姜子牙的原盘出来了,有闲空可以下来看看,前面的

  • 刚买了个好东西:16T的单碟移动硬盘。

    刚买了个好东西:16T的单碟移动硬盘。中亚上买的

  • 【美影 4K】亡命驾驶将重制发布4K UHD蓝光

    最新消息:2011年美国动作/犯罪片《亡命驾驶》将

  • 2021年初,涉及家庭影院4K HDR领域,Yuran

    还是那句话,特别忙。加班加点、又得挑灯夜战钻研

  • 【4K视频剪辑软件合辑】4k视频剪辑软件下载

    很多4K朋友在hao4k官方qq群问我4k视频剪辑软件哪

  • 在线客服

  • 返回顶部