微博 微信

Hao4K影音

[美剧] 走近皮克斯4k Inside.Pixar.S01.2160p.美剧下载

6 天前 29965 9 |只看大图 回帖奖励 |倒序浏览 |阅读模式

大红色 楼主

2021-1-17 11:00:24

电视剧频道
电视剧封面:
电视剧名: 走近皮克斯4k
年  代: 2020  
国  家: 美国
类  别: 纪录片 
语  言: 英语
字  幕: -
上映日期: 2020-11-13
文件格式: mkv    
视频效果: 4K(3840x2160)    
资源大小: 6.02 GB
片  长: 12 分钟
导  演: Erica Milsom / Tony Kaplan
剧情简介: 《走近皮克斯》共有四个章节,共20集。这一系列纪录短片将带领大家深入了解皮克斯动画台前幕后的精彩故事。第一章“灵感”于2020年11月13日在Disney+上线,每集约12分钟。
  Produced by Pixar Animation Studios, Inside Pixar is directed by Erica Milsom and Tony Kaplan, the series offers insights into the personal and cinematic stories that provide an inside look into the people, artistry, and culture of Pixar Animation Studios.
走进皮克斯/走近皮克斯4k Inside.Pixar.S01.2160p.DSNP.WEBRip.x265.10bit.HDR.DDP5.1.美剧下载
  1. Video
  2. ID : 1
  3. Format : HEVC
  4. Format/Info : High Efficiency Video Coding
  5. Format profile : Main 10@L5@High
  6. HDR format : SMPTE ST 2086, HDR10 compatible
  7. Codec ID : V_MPEGH/ISO/HEVC
  8. Duration : 12 min 50 s
  9. Bit rate : 16.1 Mb/s
  10. Width : 3 840 pixels
  11. Height : 2 160 pixels
  12. Display aspect ratio : 16:9
  13. Frame rate mode : Constant
  14. Frame rate : 23.976 (24000/1001) FPS
  15. Color space : YUV
  16. Chroma subsampling : 4:2:0
  17. Bit depth : 10 bits
  18. Bits/(Pixel*Frame) : 0.081
  19. Stream size : 1.44 GiB (98%)
  20. Language : English
  21. Default : Yes
  22. Forced : No
  23. Color range : Limited
  24. Color primaries : BT.2020
  25. Transfer characteristics : PQ
  26. Matrix coefficients : BT.2020 non-constant
  27. Mastering display color primaries : BT.2020
  28. Mastering display luminance : min: 0.0000 cd/m2, max: 1000 cd/m2

  29. Audio
  30. ID : 2
  31. Format : E-AC-3
  32. Format/Info : Enhanced AC-3
  33. Commercial name : Dolby Digital Plus
  34. Codec ID : A_EAC3
  35. Duration : 12 min 50 s
  36. Bit rate mode : Constant
  37. Bit rate : 256 kb/s
  38. Channel(s) : 6 channels
  39. Channel layout : L R C LFE Ls Rs
  40. Sampling rate : 48.0 kHz
  41. Frame rate : 31.250 FPS (1536 SPF)
  42. Compression mode : Lossy
  43. Stream size : 23.5 MiB (2%)
  44. Language : English
  45. Service kind : Complete Main
  46. Default : Yes
  47. Forced : No

  48. Text #1
  49. ID : 3
  50. Format : UTF-8
  51. Codec ID : S_TEXT/UTF8
  52. Codec ID/Info : UTF-8 Plain Text
  53. Duration : 12 min 25 s
  54. Bit rate : 127 b/s
  55. Count of elements : 217
  56. Stream size : 11.6 KiB (0%)
  57. Title : English (SDH)
  58. Language : English
  59. Default : No
  60. Forced : No

  61. Text #2
  62. ID : 4
  63. Format : UTF-8
  64. Codec ID : S_TEXT/UTF8
  65. Codec ID/Info : UTF-8 Plain Text
  66. Duration : 12 min 40 s
  67. Bit rate : 105 b/s
  68. Count of elements : 181
  69. Stream size : 9.78 KiB (0%)
  70. Title : Dansk
  71. Language : Danish
  72. Default : No
  73. Forced : No

  74. Text #3
  75. ID : 5
  76. Format : UTF-8
  77. Codec ID : S_TEXT/UTF8
  78. Codec ID/Info : UTF-8 Plain Text
  79. Duration : 12 min 40 s
  80. Bit rate : 101 b/s
  81. Count of elements : 223
  82. Stream size : 9.39 KiB (0%)
  83. Title : Deutsch
  84. Language : German
  85. Default : No
  86. Forced : No

  87. Text #4
  88. ID : 6
  89. Format : UTF-8
  90. Codec ID : S_TEXT/UTF8
  91. Codec ID/Info : UTF-8 Plain Text
  92. Duration : 12 min 48 s
  93. Bit rate : 104 b/s
  94. Count of elements : 237
  95. Stream size : 9.82 KiB (0%)
  96. Title : Español (Latinoamericano)
  97. Language : Spanish
  98. Default : No
  99. Forced : No

  100. Text #5
  101. ID : 7
  102. Format : UTF-8
  103. Codec ID : S_TEXT/UTF8
  104. Codec ID/Info : UTF-8 Plain Text
  105. Duration : 12 min 48 s
  106. Bit rate : 105 b/s
  107. Count of elements : 232
  108. Stream size : 9.87 KiB (0%)
  109. Title : Español
  110. Language : Spanish
  111. Default : No
  112. Forced : No

  113. Text #6
  114. ID : 8
  115. Format : UTF-8
  116. Codec ID : S_TEXT/UTF8
  117. Codec ID/Info : UTF-8 Plain Text
  118. Duration : 12 min 44 s
  119. Bit rate : 94 b/s
  120. Count of elements : 236
  121. Stream size : 8.81 KiB (0%)
  122. Title : Suomi
  123. Language : Finnish
  124. Default : No
  125. Forced : No

  126. Text #7
  127. ID : 9
  128. Format : UTF-8
  129. Codec ID : S_TEXT/UTF8
  130. Codec ID/Info : UTF-8 Plain Text
  131. Duration : 12 min 48 s
  132. Bit rate : 111 b/s
  133. Count of elements : 205
  134. Stream size : 10.4 KiB (0%)
  135. Title : Français
  136. Language : French
  137. Default : No
  138. Forced : No

  139. Text #8
  140. ID : 10
  141. Format : UTF-8
  142. Codec ID : S_TEXT/UTF8
  143. Codec ID/Info : UTF-8 Plain Text
  144. Duration : 12 min 48 s
  145. Bit rate : 113 b/s
  146. Count of elements : 236
  147. Stream size : 10.7 KiB (0%)
  148. Title : Italiano
  149. Language : Italian
  150. Default : No
  151. Forced : No

  152. Text #9
  153. ID : 11
  154. Format : UTF-8
  155. Codec ID : S_TEXT/UTF8
  156. Codec ID/Info : UTF-8 Plain Text
  157. Duration : 12 min 40 s
  158. Bit rate : 94 b/s
  159. Count of elements : 169
  160. Stream size : 8.73 KiB (0%)
  161. Title : Nederlands
  162. Language : Dutch
  163. Default : No
  164. Forced : No

  165. Text #10
  166. ID : 12
  167. Format : UTF-8
  168. Codec ID : S_TEXT/UTF8
  169. Codec ID/Info : UTF-8 Plain Text
  170. Duration : 12 min 44 s
  171. Bit rate : 108 b/s
  172. Count of elements : 236
  173. Stream size : 10.1 KiB (0%)
  174. Title : Norsk
  175. Language : Norwegian
  176. Default : No
  177. Forced : No

  178. Text #11
  179. ID : 13
  180. Format : UTF-8
  181. Codec ID : S_TEXT/UTF8
  182. Codec ID/Info : UTF-8 Plain Text
  183. Duration : 12 min 48 s
  184. Bit rate : 102 b/s
  185. Count of elements : 234
  186. Stream size : 9.64 KiB (0%)
  187. Title : Polski
  188. Language : Polish
  189. Default : No
  190. Forced : No

  191. Text #12
  192. ID : 14
  193. Format : UTF-8
  194. Codec ID : S_TEXT/UTF8
  195. Codec ID/Info : UTF-8 Plain Text
  196. Duration : 12 min 48 s
  197. Bit rate : 110 b/s
  198. Count of elements : 238
  199. Stream size : 10.3 KiB (0%)
  200. Title : Português
  201. Language : Portuguese
  202. Default : No
  203. Forced : No

  204. Text #13
  205. ID : 15
  206. Format : UTF-8
  207. Codec ID : S_TEXT/UTF8
  208. Codec ID/Info : UTF-8 Plain Text
  209. Duration : 12 min 48 s
  210. Bit rate : 109 b/s
  211. Count of elements : 238
  212. Stream size : 10.2 KiB (0%)
  213. Title : Português (Brasil)
  214. Language : Portuguese
  215. Default : No
  216. Forced : No

  217. Text #14
  218. ID : 16
  219. Format : UTF-8
  220. Codec ID : S_TEXT/UTF8
  221. Codec ID/Info : UTF-8 Plain Text
  222. Duration : 12 min 44 s
  223. Bit rate : 119 b/s
  224. Count of elements : 237
  225. Stream size : 11.1 KiB (0%)
  226. Title : Svenska
  227. Language : Swedish
  228. Default : No
  229. Forced : No
复制代码

走进皮克斯/走近皮克斯4k Inside.Pixar.S01.2160p.DSNP.WEBRip.x265.10bit.HDR.DDP5.1.美剧下载

走近皮克斯4k Inside.Pixar.S01.2160p.DSNP.WEBRip.x265.10bit.HDR.DDP5.1.【6.02 GB】
[Hao4k]走近皮克斯4k Inside.Pixar.S01.2160p.DSNP.WEBRip.x265.10bit.HDR.DDP5.1-KOG.torrent (30.94 KB)
回复

使用道具 举报

全部回复9

Kevin_Jian 发表于 2021-1-17 14:08:28

Kevin_Jian 沙发

2021-1-17 14:08:28

thanks a lot
回复 支持 反对

使用道具 举报

Zhennifer 发表于 2021-1-17 19:52:27

Zhennifer 板凳

2021-1-17 19:52:27

多谢大大分享!!
回复 支持 反对

使用道具 举报

cc158602358 发表于 2021-1-21 14:46:28

cc158602358 5#

2021-1-21 14:46:28

回复 支持 反对

使用道具 举报

movie_music 发表于 2021-1-21 15:39:36

movie_music 6#

2021-1-21 15:39:36

非常感谢楼主带来的好东东,正在下载!
回复 支持 反对

使用道具 举报

dqsyf 发表于 2021-1-24 08:31:39

dqsyf 7#

2021-1-24 08:31:39


非常感谢楼主
回复 支持 反对

使用道具 举报

ET007 发表于 2021-1-29 11:34:36

ET007 9#

2021-1-29 11:34:36

有中文字幕的吗?
回复 支持 反对

使用道具 举报

daivdsuncc 发表于 6 天前

daivdsuncc 10#

6 天前

感谢楼主,辛苦
回复 支持 反对

使用道具 举报

   发表回复

您需要登录后才可以回帖 登录 | 立即注册

返回列表 本版积分规则

:
白银玩家
:
未填写

主题

帖子

积分995

图文推荐

  • 小米82吋是能进电梯最大的尺寸吗?

    小米82吋是能进电梯最大的尺寸吗?,还有就是这个

  • 教你如何将4K原盘转换成无损REMUX版本的MKV

    教你如何将4K原盘转换成无损REMUX版本的MKV格式。

  • 从认识声音到各种前级、后级、炮及线材使用

    从认识声音到各种前级、后级、炮及线材使用分享鉴

  • 刚买了个好东西:16T的单碟移动硬盘。

    刚买了个好东西:16T的单碟移动硬盘。中亚上买的

  • 【美影 4K】哥斯拉大战金刚上映后将发布4K

    最新消息:2021年美国科幻冒险动作片《哥斯拉大战

  • 在线客服

  • 返回顶部