微博 微信

Hao4K影音

电影频道
电影封面:
片  名: 雪人往事4K
电影分类: 冒险 奇幻 动画 
国  家: 美国 
年  代: 2020年
分 辨 率: 4K(3840x2160)
电影格式: MKV|REMUX 
画质标准: HDR 
音质编码: Dolby Digital Plus Audio 其他AAC 
电影声道: 5.1声道 
帧数/FPS: 23.976 FPS
电影语言: 英文原版 
资源大小: 0.976 GB
导  演: Dan Abraham / Trent Correy
豆瓣评分: 8.3 分
中文字幕: /thread-53384-1-1.html
剧情简介: 迪士尼将推出[冰雪奇缘]衍生短片[雪人往事](Once Upon a Snowman,暂译),首款海报同时曝光。从片名与海报可以看出,这是关于雪宝的故事。该片将于10月23日登陆Disney+。
冰雪奇缘番外短片/雪人往事4K.Once.Upon.a.Snowman.2020.HDR.2160p.WEB.h265-4k电影信息
  1. Video
  2. ID : 1
  3. Format : HEVC
  4. Format/Info : High Efficiency Video Coding
  5. Format profile : Main 10@L5@High
  6. HDR format : SMPTE ST 2086, HDR10 compatible
  7. Codec ID : V_MPEGH/ISO/HEVC
  8. Duration : 7 min 35 s
  9. Bit rate : 15.3 Mb/s
  10. Width : 3 840 pixels
  11. Height : 2 160 pixels
  12. Display aspect ratio : 16:9
  13. Frame rate mode : Constant
  14. Frame rate : 23.976 (24000/1001) FPS
  15. Color space : YUV
  16. Chroma subsampling : 4:2:0
  17. Bit depth : 10 bits
  18. Bits/(Pixel*Frame) : 0.077
  19. Stream size : 830 MiB (95%)
  20. Language : English
  21. Default : Yes
  22. Forced : No
  23. Color range : Limited
  24. Color primaries : BT.2020
  25. Transfer characteristics : PQ
  26. Matrix coefficients : BT.2020 non-constant
  27. Mastering display color primaries : Display P3
  28. Mastering display luminance : min: 0.0000 cd/m2, max: 1000 cd/m2

  29. Audio
  30. ID : 2
  31. Format : E-AC-3 JOC
  32. Format/Info : Enhanced AC-3 with Joint Object Coding
  33. Commercial name : Dolby Digital Plus with Dolby Atmos
  34. Codec ID : A_EAC3
  35. Duration : 7 min 35 s
  36. Bit rate mode : Constant
  37. Bit rate : 768 kb/s
  38. Channel(s) : 6 channels
  39. Channel layout : L R C LFE Ls Rs
  40. Sampling rate : 48.0 kHz
  41. Frame rate : 31.250 FPS (1536 SPF)
  42. Compression mode : Lossy
  43. Stream size : 41.7 MiB (5%)
  44. Language : English
  45. Service kind : Complete Main
  46. Default : Yes
  47. Forced : No
  48. Complexity index : 16
  49. Number of dynamic objects : 15
  50. Bed channel count : 1 channel
  51. Bed channel configuration : LFE

  52. Text #1
  53. ID : 3
  54. Format : UTF-8
  55. Codec ID : S_TEXT/UTF8
  56. Codec ID/Info : UTF-8 Plain Text
  57. Duration : 7 min 23 s
  58. Bit rate : 56 b/s
  59. Count of elements : 122
  60. Stream size : 3.07 KiB (0%)
  61. Title : English (SDH)
  62. Language : English
  63. Default : No
  64. Forced : No

  65. Text #2
  66. ID : 4
  67. Format : UTF-8
  68. Codec ID : S_TEXT/UTF8
  69. Codec ID/Info : UTF-8 Plain Text
  70. Duration : 7 min 24 s
  71. Bit rate : 47 b/s
  72. Count of elements : 69
  73. Stream size : 2.60 KiB (0%)
  74. Title : Dansk
  75. Language : Danish
  76. Default : No
  77. Forced : No

  78. Text #3
  79. ID : 5
  80. Format : UTF-8
  81. Codec ID : S_TEXT/UTF8
  82. Codec ID/Info : UTF-8 Plain Text
  83. Duration : 7 min 23 s
  84. Bit rate : 47 b/s
  85. Count of elements : 96
  86. Stream size : 2.58 KiB (0%)
  87. Title : Deutsch
  88. Language : German
  89. Default : No
  90. Forced : No

  91. Text #4
  92. ID : 6
  93. Format : UTF-8
  94. Codec ID : S_TEXT/UTF8
  95. Codec ID/Info : UTF-8 Plain Text
  96. Duration : 7 min 23 s
  97. Bit rate : 46 b/s
  98. Count of elements : 88
  99. Stream size : 2.52 KiB (0%)
  100. Title : Español
  101. Language : Spanish
  102. Default : No
  103. Forced : No

  104. Text #5
  105. ID : 7
  106. Format : UTF-8
  107. Codec ID : S_TEXT/UTF8
  108. Codec ID/Info : UTF-8 Plain Text
  109. Duration : 7 min 23 s
  110. Bit rate : 46 b/s
  111. Count of elements : 88
  112. Stream size : 2.53 KiB (0%)
  113. Title : Español (Latinoamericano)
  114. Language : Spanish
  115. Default : No
  116. Forced : No

  117. Text #6
  118. ID : 8
  119. Format : UTF-8
  120. Codec ID : S_TEXT/UTF8
  121. Codec ID/Info : UTF-8 Plain Text
  122. Duration : 7 min 23 s
  123. Bit rate : 45 b/s
  124. Count of elements : 88
  125. Stream size : 2.47 KiB (0%)
  126. Title : Suomi
  127. Language : Finnish
  128. Default : No
  129. Forced : No

  130. Text #7
  131. ID : 9
  132. Format : UTF-8
  133. Codec ID : S_TEXT/UTF8
  134. Codec ID/Info : UTF-8 Plain Text
  135. Duration : 7 min 23 s
  136. Bit rate : 48 b/s
  137. Count of elements : 88
  138. Stream size : 2.60 KiB (0%)
  139. Title : Français
  140. Language : French
  141. Default : No
  142. Forced : No

  143. Text #8
  144. ID : 10
  145. Format : UTF-8
  146. Codec ID : S_TEXT/UTF8
  147. Codec ID/Info : UTF-8 Plain Text
  148. Duration : 7 min 23 s
  149. Bit rate : 42 b/s
  150. Count of elements : 88
  151. Stream size : 2.31 KiB (0%)
  152. Title : Italiano
  153. Language : Italian
  154. Default : No
  155. Forced : No

  156. Text #9
  157. ID : 11
  158. Format : UTF-8
  159. Codec ID : S_TEXT/UTF8
  160. Codec ID/Info : UTF-8 Plain Text
  161. Duration : 7 min 23 s
  162. Bit rate : 41 b/s
  163. Count of elements : 84
  164. Stream size : 2.23 KiB (0%)
  165. Title : Nederlands
  166. Language : Dutch
  167. Default : No
  168. Forced : No

  169. Text #10
  170. ID : 12
  171. Format : UTF-8
  172. Codec ID : S_TEXT/UTF8
  173. Codec ID/Info : UTF-8 Plain Text
  174. Duration : 7 min 23 s
  175. Bit rate : 41 b/s
  176. Count of elements : 88
  177. Stream size : 2.27 KiB (0%)
  178. Title : Norsk
  179. Language : Norwegian
  180. Default : No
  181. Forced : No

  182. Text #11
  183. ID : 13
  184. Format : UTF-8
  185. Codec ID : S_TEXT/UTF8
  186. Codec ID/Info : UTF-8 Plain Text
  187. Duration : 7 min 23 s
  188. Bit rate : 44 b/s
  189. Count of elements : 88
  190. Stream size : 2.41 KiB (0%)
  191. Title : Polski
  192. Language : Polish
  193. Default : No
  194. Forced : No

  195. Text #12
  196. ID : 14
  197. Format : UTF-8
  198. Codec ID : S_TEXT/UTF8
  199. Codec ID/Info : UTF-8 Plain Text
  200. Duration : 7 min 23 s
  201. Bit rate : 46 b/s
  202. Count of elements : 88
  203. Stream size : 2.50 KiB (0%)
  204. Title : Português (Brasil)
  205. Language : Portuguese
  206. Default : No
  207. Forced : No

  208. Text #13
  209. ID : 15
  210. Format : UTF-8
  211. Codec ID : S_TEXT/UTF8
  212. Codec ID/Info : UTF-8 Plain Text
  213. Duration : 7 min 23 s
  214. Bit rate : 45 b/s
  215. Count of elements : 88
  216. Stream size : 2.45 KiB (0%)
  217. Title : Português
  218. Language : Portuguese
  219. Default : No
  220. Forced : No

  221. Text #14
  222. ID : 16
  223. Format : UTF-8
  224. Codec ID : S_TEXT/UTF8
  225. Codec ID/Info : UTF-8 Plain Text
  226. Duration : 7 min 23 s
  227. Bit rate : 43 b/s
  228. Count of elements : 83
  229. Stream size : 2.34 KiB (0%)
  230. Title : Svenska
  231. Language : Swedish
  232. Default : No
  233. Forced : No
复制代码

冰雪奇缘番外短片/雪人往事4K.Once.Upon.a.Snowman.2020.HDR.2160p.WEB.h265-4K电影短片下载
雪人往事4K.Once.Upon.a.Snowman.2020.HDR.2160p.WEB.h265【4K HDR 0.97GB】
[Hao4K]雪人往事4K.Once.Upon.a.Snowman.2020.HDR.2160p.WEB.h265-KOGi.torrent (19.77 KB)
回复

使用道具 举报

全部回复63

benxu 发表于 2021-1-17 23:04:51

benxu 地板

2021-1-17 23:04:51

谢谢发布。。怎么现在的4K越来越小。。
回复 支持 0 反对 1

使用道具 举报

254711964 发表于 2021-1-17 23:06:19

254711964 5#

2021-1-17 23:06:19

感谢分享,好人一生平安。
回复 支持 反对

使用道具 举报

zjh1366530332 发表于 2021-1-17 23:23:41

zjh1366530332 7#

2021-1-17 23:23:41

片长7分半,970Mb不小了
回复 支持 反对

使用道具 举报

苏默金武 发表于 2021-1-18 01:33:26

苏默金武 8#

2021-1-18 01:33:26

https://www.hao4k.cn/thread-53384-1-1.html 双语字幕已提供下载!!!
回复 支持 反对

使用道具 举报

dyczw 发表于 2021-1-18 06:51:00

dyczw 9#

2021-1-18 06:51:00

感谢分享,辛苦了
回复 支持 1 反对 0

使用道具 举报

王茂 发表于 2021-1-18 09:59:22

王茂 10#

2021-1-18 09:59:22

感谢分享,辛苦了
回复 支持 反对

使用道具 举报

xxw8888 发表于 2021-1-18 11:36:34

xxw8888 11#

2021-1-18 11:36:34

感谢分享,辛苦了
回复 支持 反对

使用道具 举报

bonna 发表于 2021-1-18 12:12:09

bonna 12#

2021-1-18 12:12:09

不到8分钟,小于1G?
回复 支持 反对

使用道具 举报

kennethlin168 发表于 2021-1-18 12:26:52

kennethlin168 13#

2021-1-18 12:26:52

感谢分享,辛苦了
回复 支持 反对

使用道具 举报

海狸13 发表于 2021-1-18 13:11:47

海狸13 15#

2021-1-18 13:11:47

谢谢LZ分享
回复 支持 反对

使用道具 举报

Elsapoo 发表于 2021-1-18 18:48:41

Elsapoo 18#

2021-1-18 18:48:41

短片也看看如何。感谢分享!
回复 支持 反对

使用道具 举报

   发表回复

您需要登录后才可以回帖 登录 | 立即注册

返回列表 本版积分规则

  • 在线客服

  • 返回顶部