微博 微信

Hao4K影音

电影频道
电影封面:
片  名: 企鹅:幕后纪实4k
电影分类: 纪录片 
国  家: 美国 
年  代: 2020年
分 辨 率: 4K(3840x2160)
电影格式: MKV|REMUX 
画质标准: HDR 
音质编码: Dolby Digital Plus Audio 
电影声道: 其他 
帧数/FPS: 23.976 FPS
电影语言: 英文原版 
资源大小: 9.11 GB
导  演: 艾雷斯泰·法瑟吉尔 / Jeff Wilson
豆瓣评分: 7.0 分
中文字幕: -
剧情简介: Follows the witty and tenacious team of filmmakers behind Disneynature\'s Penguins (2019), a coming-of-age story about an Adélie penguin named Steve.
企鹅:幕后纪实4k Penguins.Life.on.the.Edge.2020.HDR.2160p.WEB.h265.电影信息
  1. Video
  2. ID : 1
  3. Format : HEVC
  4. Format/Info : High Efficiency Video Coding
  5. HDR format : SMPTE ST 2086, HDR10 compatible
  6. Codec ID : V_MPEGH/ISO/HEVC
  7. Duration : 1 h 17 min
  8. Bit rate : 16.4 Mb/s
  9. Width : 3 840 pixels
  10. Height : 2 160 pixels
  11. Display aspect ratio : 16:9
  12. Frame rate mode : Constant
  13. Frame rate : 23.976 (24000/1001) FPS
  14. Color space : YUV
  15. Chroma subsampling : 4:2:0
  16. Bit depth : 10 bits
  17. Bits/(Pixel*Frame) : 0.083
  18. Stream size : 8.86 GiB (98%)
  19. Language : English
  20. Default : Yes
  21. Forced : No
  22. Color range : Limited
  23. Color primaries : BT.2020
  24. Transfer characteristics : PQ
  25. Matrix coefficients : BT.2020 non-constant
  26. Mastering display color primaries : Display P3
  27. Mastering display luminance : min: 0.0010 cd/m2, max: 1000 cd/m2

  28. Audio
  29. ID : 2
  30. Format : E-AC-3
  31. Format/Info : Enhanced AC-3
  32. Commercial name : Dolby Digital Plus
  33. Codec ID : A_EAC3
  34. Duration : 1 h 17 min
  35. Bit rate mode : Constant
  36. Bit rate : 256 kb/s
  37. Channel(s) : 6 channels
  38. Channel layout : L R C LFE Ls Rs
  39. Sampling rate : 48.0 kHz
  40. Frame rate : 31.250 FPS (1536 SPF)
  41. Compression mode : Lossy
  42. Stream size : 141 MiB (2%)
  43. Language : English
  44. Service kind : Complete Main
  45. Default : Yes
  46. Forced : No

  47. Text #1
  48. ID : 3
  49. Format : UTF-8
  50. Codec ID : S_TEXT/UTF8
  51. Codec ID/Info : UTF-8 Plain Text
  52. Duration : 1 h 16 min
  53. Bit rate : 89 b/s
  54. Count of elements : 1121
  55. Stream size : 50.1 KiB (0%)
  56. Title : English (SDH)
  57. Language : English
  58. Default : No
  59. Forced : No

  60. Text #2
  61. ID : 4
  62. Format : UTF-8
  63. Codec ID : S_TEXT/UTF8
  64. Codec ID/Info : UTF-8 Plain Text
  65. Duration : 1 h 16 min
  66. Bit rate : 79 b/s
  67. Count of elements : 1013
  68. Stream size : 44.8 KiB (0%)
  69. Title : Dansk
  70. Language : Danish
  71. Default : No
  72. Forced : No

  73. Text #3
  74. ID : 5
  75. Format : UTF-8
  76. Codec ID : S_TEXT/UTF8
  77. Codec ID/Info : UTF-8 Plain Text
  78. Duration : 1 h 16 min
  79. Bit rate : 87 b/s
  80. Count of elements : 1014
  81. Stream size : 48.9 KiB (0%)
  82. Title : Deutsch
  83. Language : German
  84. Default : No
  85. Forced : No

  86. Text #4
  87. ID : 6
  88. Format : UTF-8
  89. Codec ID : S_TEXT/UTF8
  90. Codec ID/Info : UTF-8 Plain Text
  91. Duration : 1 h 16 min
  92. Bit rate : 85 b/s
  93. Count of elements : 1011
  94. Stream size : 47.9 KiB (0%)
  95. Title : Español
  96. Language : Spanish
  97. Default : No
  98. Forced : No

  99. Text #5
  100. ID : 7
  101. Format : UTF-8
  102. Codec ID : S_TEXT/UTF8
  103. Codec ID/Info : UTF-8 Plain Text
  104. Duration : 1 h 16 min
  105. Bit rate : 89 b/s
  106. Count of elements : 1017
  107. Stream size : 50.0 KiB (0%)
  108. Title : Español (Latinoamericano)
  109. Language : Spanish
  110. Default : No
  111. Forced : No

  112. Text #6
  113. ID : 8
  114. Format : UTF-8
  115. Codec ID : S_TEXT/UTF8
  116. Codec ID/Info : UTF-8 Plain Text
  117. Duration : 1 h 16 min
  118. Bit rate : 70 b/s
  119. Count of elements : 1008
  120. Stream size : 39.8 KiB (0%)
  121. Title : Suomi
  122. Language : Finnish
  123. Default : No
  124. Forced : No

  125. Text #7
  126. ID : 9
  127. Format : UTF-8
  128. Codec ID : S_TEXT/UTF8
  129. Codec ID/Info : UTF-8 Plain Text
  130. Duration : 1 h 16 min
  131. Bit rate : 87 b/s
  132. Count of elements : 969
  133. Stream size : 49.2 KiB (0%)
  134. Title : Français
  135. Language : French
  136. Default : No
  137. Forced : No

  138. Text #8
  139. ID : 10
  140. Format : UTF-8
  141. Codec ID : S_TEXT/UTF8
  142. Codec ID/Info : UTF-8 Plain Text
  143. Duration : 1 h 16 min
  144. Bit rate : 82 b/s
  145. Count of elements : 1013
  146. Stream size : 46.4 KiB (0%)
  147. Title : Italiano
  148. Language : Italian
  149. Default : No
  150. Forced : No

  151. Text #9
  152. ID : 11
  153. Format : UTF-8
  154. Codec ID : S_TEXT/UTF8
  155. Codec ID/Info : UTF-8 Plain Text
  156. Duration : 1 h 16 min
  157. Bit rate : 70 b/s
  158. Count of elements : 782
  159. Stream size : 39.7 KiB (0%)
  160. Title : Nederlands
  161. Language : Dutch
  162. Default : No
  163. Forced : No

  164. Text #10
  165. ID : 12
  166. Format : UTF-8
  167. Codec ID : S_TEXT/UTF8
  168. Codec ID/Info : UTF-8 Plain Text
  169. Duration : 1 h 16 min
  170. Bit rate : 77 b/s
  171. Count of elements : 1011
  172. Stream size : 43.6 KiB (0%)
  173. Title : Norsk
  174. Language : Norwegian
  175. Default : No
  176. Forced : No

  177. Text #11
  178. ID : 13
  179. Format : UTF-8
  180. Codec ID : S_TEXT/UTF8
  181. Codec ID/Info : UTF-8 Plain Text
  182. Duration : 1 h 16 min
  183. Bit rate : 71 b/s
  184. Count of elements : 1005
  185. Stream size : 40.4 KiB (0%)
  186. Title : Polski
  187. Language : Polish
  188. Default : No
  189. Forced : No

  190. Text #12
  191. ID : 14
  192. Format : UTF-8
  193. Codec ID : S_TEXT/UTF8
  194. Codec ID/Info : UTF-8 Plain Text
  195. Duration : 1 h 16 min
  196. Bit rate : 80 b/s
  197. Count of elements : 1006
  198. Stream size : 45.2 KiB (0%)
  199. Title : Português
  200. Language : Portuguese
  201. Default : No
  202. Forced : No

  203. Text #13
  204. ID : 15
  205. Format : UTF-8
  206. Codec ID : S_TEXT/UTF8
  207. Codec ID/Info : UTF-8 Plain Text
  208. Duration : 1 h 16 min
  209. Bit rate : 85 b/s
  210. Count of elements : 1019
  211. Stream size : 48.0 KiB (0%)
  212. Title : Português (Brasil)
  213. Language : Portuguese
  214. Default : No
  215. Forced : No

  216. Text #14
  217. ID : 16
  218. Format : UTF-8
  219. Codec ID : S_TEXT/UTF8
  220. Codec ID/Info : UTF-8 Plain Text
  221. Duration : 1 h 16 min
  222. Bit rate : 75 b/s
  223. Count of elements : 1013
  224. Stream size : 42.6 KiB (0%)
  225. Title : Svenska
  226. Language : Swedish
  227. Default : No
  228. Forced : No
复制代码

企鹅:幕后纪实4k Penguins.Life.on.the.Edge.2020.HDR.2160p.WEB.h265.电影下载

企鹅:幕后纪实4k Penguins.Life.on.the.Edge.2020.HDR.2160p.WEB.h265.【9.11 GB】
资源停止下载
回复

使用道具 举报

全部回复25

dyczw 发表于 2021-1-18 06:50:32

dyczw 地板

2021-1-18 06:50:32

感谢分享,辛苦了
回复 支持 反对

使用道具 举报

dk30129 发表于 2021-1-18 08:28:48

dk30129 6#

2021-1-18 08:28:48

谢谢分享,辛苦了!!!
回复 支持 反对

使用道具 举报

kennethlin168 发表于 2021-1-18 12:25:21

kennethlin168 7#

2021-1-18 12:25:21

感谢分享,辛苦了
回复 支持 反对

使用道具 举报

wds99688 发表于 2021-1-18 15:12:42

wds99688 8#

2021-1-18 15:12:42

谢谢分享,遗憾的是没有中文字幕
回复 支持 反对

使用道具 举报

lc159 发表于 2021-1-18 17:19:35

lc159 9#

2021-1-18 17:19:35

谢谢分享,中文字幕还需要哪位大神来提供就好啦
回复 支持 1 反对 0

使用道具 举报

phskytom 发表于 2021-1-19 08:47:34

phskytom 10#

2021-1-19 08:47:34

最爱纪录片,谢谢
回复 支持 反对

使用道具 举报

cb917918 发表于 2021-1-19 15:33:31

cb917918 11#

2021-1-19 15:33:31

谢谢分享,楼主辛苦了
回复 支持 反对

使用道具 举报

dk30129 发表于 2021-1-20 08:40:17

dk30129 13#

2021-1-20 08:40:17

谢谢分享,顶你!!!!!
回复 支持 反对

使用道具 举报

世爵39 发表于 2021-1-20 08:52:39

世爵39 14#

2021-1-20 08:52:39

最爱纪录片,谢谢
回复 支持 反对

使用道具 举报

世爵39 发表于 2021-1-20 10:55:33

世爵39 15#

2021-1-20 10:55:33

不错的片子,求一个字幕
回复 支持 反对

使用道具 举报

世爵39 发表于 2021-1-20 12:17:32

世爵39 16#

2021-1-20 12:17:32

这个一直找不到字幕。
回复 支持 反对

使用道具 举报

世爵39 发表于 2021-1-20 12:34:08

世爵39 17#

2021-1-20 12:34:08

中文字幕还需要哪位大神来提供就好啦
回复 支持 反对

使用道具 举报

世爵39 发表于 2021-1-20 16:46:52

世爵39 18#

2021-1-20 16:46:52

实比较疑惑50多G的和80多G的有什么区别,有没有看过的大佬分享一波
回复 支持 反对

使用道具 举报

   发表回复

您需要登录后才可以回帖 登录 | 立即注册

返回列表 本版积分规则

  • 在线客服

  • 返回顶部