微博 微信

Hao4K影音

电影频道
电影封面:
片  名: 互换身体4k
电影分类: 恐怖 惊悚 喜剧 
国  家: 美国 
年  代: 2020年
分 辨 率: 4K(3840x2160)
电影格式: MKV|REMUX 
画质标准: 其他 
音质编码: Dolby Digital Audio 
电影声道: 其他 
帧数/FPS: 23.976 FPS
电影语言: 英文原版 
资源大小: 12.4 GB
导  演: 克里斯托弗·兰登
豆瓣评分: 6.1 分
中文字幕: /thread-53453-1-1.html
剧情简介: 讲述高中女生和中年男子连环杀手交换身体的故事:女孩米莉成为镇上臭名昭著的杀手“屠夫”的新目标,他那把神秘古老的匕首没能杀掉米莉,导致两人互换身体后,她意识到自己只有一天的时间换回来,否则将永不可逆,而屠夫发现这具少女身体是杀人狂欢的完美掩护,两人使出浑身解数斗智斗勇。
屠・姐上错身(港) / 换人杀砍砍(台) / 互换身体 / 移形幻影 / 怪易(豆友译名)/互换身体4k Freaky.2020.iTA-ENG.WEBDL.2160p.x265电影下载
  1. Video
  2. ID : 1
  3. Format : HEVC
  4. Format/Info : High Efficiency Video Coding
  5. Codec ID : V_MPEGH/ISO/HEVC
  6. Duration : 1 h 42 min
  7. Bit rate : 15.0 Mb/s
  8. Width : 3 840 pixels
  9. Height : 2 160 pixels
  10. Display aspect ratio : 16:9
  11. Frame rate mode : Constant
  12. Frame rate : 23.976 (24000/1001) FPS
  13. Color space : YUV
  14. Chroma subsampling : 4:2:0 (Type 2)
  15. Bit depth : 10 bits
  16. Bits/(Pixel*Frame) : 0.076
  17. Stream size : 10.7 GiB (87%)
  18. Language : English
  19. Default : Yes
  20. Forced : No
  21. Color range : Limited
  22. Color primaries : BT.2020
  23. Transfer characteristics : PQ
  24. Matrix coefficients : BT.2020 non-constant
  25. Maximum Content Light Level : 1000 cd/m2
  26. Maximum Frame-Average Light Level : 106 cd/m2

  27. Audio #1
  28. ID : 2
  29. Format : AC-3
  30. Format/Info : Audio Coding 3
  31. Commercial name : Dolby Digital
  32. Codec ID : A_AC3
  33. Duration : 1 h 42 min
  34. Bit rate mode : Constant
  35. Bit rate : 640 kb/s
  36. Channel(s) : 6 channels
  37. Channel layout : L R C LFE Ls Rs
  38. Sampling rate : 48.0 kHz
  39. Frame rate : 31.250 FPS (1536 SPF)
  40. Compression mode : Lossy
  41. Delay relative to video : 958 ms
  42. Stream size : 467 MiB (4%)
  43. Title : AC3 Ita 5.1 Ch
  44. Language : Italian
  45. Service kind : Complete Main
  46. Default : Yes
  47. Forced : Yes

  48. Audio #2
  49. ID : 3
  50. Format : E-AC-3
  51. Format/Info : Enhanced AC-3
  52. Commercial name : Dolby Digital Plus
  53. Codec ID : A_EAC3
  54. Duration : 1 h 42 min
  55. Bit rate mode : Constant
  56. Bit rate : 384 kb/s
  57. Channel(s) : 6 channels
  58. Channel layout : L R C LFE Ls Rs
  59. Sampling rate : 48.0 kHz
  60. Frame rate : 31.250 FPS (1536 SPF)
  61. Compression mode : Lossy
  62. Delay relative to video : 958 ms
  63. Stream size : 280 MiB (2%)
  64. Title : E-AC3 Ita 5.1 Ch
  65. Language : Italian
  66. Service kind : Complete Main
  67. Default : No
  68. Forced : No

  69. Audio #3
  70. ID : 4
  71. Format : E-AC-3
  72. Format/Info : Enhanced AC-3
  73. Commercial name : Dolby Digital Plus
  74. Codec ID : A_EAC3
  75. Duration : 1 h 42 min
  76. Bit rate mode : Constant
  77. Bit rate : 640 kb/s
  78. Channel(s) : 6 channels
  79. Channel layout : L R C LFE Ls Rs
  80. Sampling rate : 48.0 kHz
  81. Frame rate : 31.250 FPS (1536 SPF)
  82. Compression mode : Lossy
  83. Stream size : 467 MiB (4%)
  84. Title : E-AC3 Eng 5.1 Ch
  85. Language : English
  86. Service kind : Complete Main
  87. Default : No
  88. Forced : No

  89. Audio #4
  90. ID : 5
  91. Format : AC-3
  92. Format/Info : Audio Coding 3
  93. Commercial name : Dolby Digital
  94. Codec ID : A_AC3
  95. Duration : 1 h 42 min
  96. Bit rate mode : Constant
  97. Bit rate : 640 kb/s
  98. Channel(s) : 6 channels
  99. Channel layout : L R C LFE Ls Rs
  100. Sampling rate : 48.0 kHz
  101. Frame rate : 31.250 FPS (1536 SPF)
  102. Compression mode : Lossy
  103. Stream size : 467 MiB (4%)
  104. Title : AC3 Eng 5.1 Ch
  105. Language : English
  106. Service kind : Complete Main
  107. Default : No
  108. Forced : No

  109. Text #1
  110. ID : 6
  111. Format : UTF-8
  112. Codec ID : S_TEXT/UTF8
  113. Codec ID/Info : UTF-8 Plain Text
  114. Duration : 1 h 25 min
  115. Bit rate : 0 b/s
  116. Count of elements : 24
  117. Stream size : 570 Bytes (0%)
  118. Title : FORCED Ita
  119. Language : Italian
  120. Default : Yes
  121. Forced : Yes

  122. Text #2
  123. ID : 7
  124. Format : UTF-8
  125. Codec ID : S_TEXT/UTF8
  126. Codec ID/Info : UTF-8 Plain Text
  127. Duration : 1 h 41 min
  128. Bit rate : 44 b/s
  129. Count of elements : 1031
  130. Stream size : 33.2 KiB (0%)
  131. Title : Subs Ita regular
  132. Language : Italian
  133. Default : No
  134. Forced : No

  135. Text #3
  136. ID : 8
  137. Format : UTF-8
  138. Codec ID : S_TEXT/UTF8
  139. Codec ID/Info : UTF-8 Plain Text
  140. Duration : 1 h 42 min
  141. Bit rate : 63 b/s
  142. Count of elements : 1822
  143. Stream size : 47.3 KiB (0%)
  144. Title : Subs Eng N.U.
  145. Language : English
  146. Default : No
  147. Forced : No
复制代码

屠・姐上错身(港) / 换人杀砍砍(台) / 互换身体 / 移形幻影 / 怪易(豆友译名)/互换身体4k Freaky.2020.iTA-ENG.WEBDL.2160p.x265电影下载

互换身体4k Freaky.2020.iTA-ENG.WEBDL.2160p.x265【12.4 GB】
互换身体4k.txt (89 Bytes)
回复

使用道具 举报

苏默金武 发表于 2021-1-19 19:37:16

苏默金武 推荐

2021-1-19 19:37:16

https://www.hao4k.cn/thread-53453-1-1.html 双语字幕已提供下载!!!
回复 支持 1 反对 0

使用道具 举报

scbzzyou0429 发表于 2021-1-19 20:43:35

scbzzyou0429 板凳

2021-1-19 20:43:35

谢谢楼主无私分享!
回复 支持 反对

使用道具 举报

Amida 发表于 2021-1-20 15:30:47

Amida 5#

2021-1-20 15:30:47

下来欣赏  谢谢
回复 支持 反对

使用道具 举报

dtweibo 发表于 2021-1-21 18:07:47

dtweibo 7#

2021-1-21 18:07:47

感谢楼主免费分享好资源!!!
回复 支持 反对

使用道具 举报

世爵39 发表于 2021-1-22 08:19:17

世爵39 9#

2021-1-22 08:19:17

有没有中字幕????
回复 支持 反对

使用道具 举报

世爵39 发表于 2021-1-22 12:49:10

世爵39 10#

2021-1-22 12:49:10

有没有中字幕????
回复 支持 反对

使用道具 举报

chuchan1 发表于 2021-1-22 18:24:21

chuchan1 11#

2021-1-22 18:24:21

感谢楼主免费分享好资源!!!
回复 支持 反对

使用道具 举报

月光麦田 发表于 2021-1-24 10:09:40

月光麦田 12#

2021-1-24 10:09:40

不知道好看吗,支持楼主发片
回复 支持 反对

使用道具 举报

eyoueyou2008 发表于 2021-1-26 00:09:36

eyoueyou2008 14#

2021-1-26 00:09:36

感谢楼主。支持。
回复 支持 反对

使用道具 举报

hqok123 发表于 2021-1-26 18:51:34

hqok123 15#

2021-1-26 18:51:34

支持下分享
回复 支持 反对

使用道具 举报

   发表回复

您需要登录后才可以回帖 登录 | 立即注册

返回列表 本版积分规则

  • 在线客服

  • 返回顶部