微博 微信

Hao4K影音

电影频道
电影封面:
片  名: 前程似锦的女孩4k
电影分类: 犯罪 惊悚 剧情 
国  家: 美国 
年  代: 2020年
分 辨 率: 4K(3840x2160)
电影格式: MKV|REMUX 
画质标准: HDR10 
音质编码: Dolby Digital Plus Audio 
电影声道: 5.1声道 
帧数/FPS: 23.976 FPS
电影语言: 英文原版 
资源大小: 12.3 GB
导  演: 埃默拉尔德·芬内尔
豆瓣评分: 7.4 分
中文字幕: -
剧情简介:  每个人都说凯茜(凯瑞·穆里根 饰)是个很有前途的年轻女子,直到一场神秘事件突然发生使她的未来脱轨。但是在凯茜的生活中,一切看起来并非如此:她邪恶而又聪明,诱人但又狡猾,还在夜间过着秘密的双重生活。现在,意外的遭遇将使凯茜有机会纠正过去的错误。
花漾女子(台) / 有前途的年轻女子/前程似锦的女孩4k Promising.Young.Woman.2020.2160p.AMZN.WEB-DL.x265.10bit.HDR10plus.DDP5.1.电影下载
  1. Video
  2. ID : 1
  3. Format : HEVC
  4. Format/Info : High Efficiency Video Coding
  5. Format profile : Main 10@L5@Main
  6. HDR format : SMPTE ST 2094 App 4, Version 1, HDR10+ Profile B compatible
  7. Codec ID : V_MPEGH/ISO/HEVC
  8. Duration : 1 h 53 min
  9. Bit rate : 14.8 Mb/s
  10. Width : 3 840 pixels
  11. Height : 1 600 pixels
  12. Display aspect ratio : 2.40:1
  13. Frame rate mode : Constant
  14. Frame rate : 23.976 (24000/1001) FPS
  15. Color space : YUV
  16. Chroma subsampling : 4:2:0
  17. Bit depth : 10 bits
  18. Bits/(Pixel*Frame) : 0.101
  19. Stream size : 11.8 GiB (96%)
  20. Language : English
  21. Default : Yes
  22. Forced : No
  23. Color range : Limited
  24. Color primaries : BT.2020
  25. Transfer characteristics : PQ
  26. Matrix coefficients : BT.2020 non-constant
  27. Mastering display color primaries : BT.2020
  28. Mastering display luminance : min: 0.0050 cd/m2, max: 1000 cd/m2
  29. Maximum Content Light Level : 886 cd/m2
  30. Maximum Frame-Average Light Level : 336 cd/m2

  31. Audio
  32. ID : 2
  33. Format : E-AC-3
  34. Format/Info : Enhanced AC-3
  35. Commercial name : Dolby Digital Plus
  36. Codec ID : A_EAC3
  37. Duration : 1 h 53 min
  38. Bit rate mode : Constant
  39. Bit rate : 640 kb/s
  40. Channel(s) : 6 channels
  41. Channel layout : L R C LFE Ls Rs
  42. Sampling rate : 48.0 kHz
  43. Frame rate : 31.250 FPS (1536 SPF)
  44. Compression mode : Lossy
  45. Stream size : 521 MiB (4%)
  46. Language : English
  47. Service kind : Complete Main
  48. Default : Yes
  49. Forced : No

  50. Text
  51. ID : 3
  52. Format : UTF-8
  53. Codec ID : S_TEXT/UTF8
  54. Codec ID/Info : UTF-8 Plain Text
  55. Duration : 1 h 46 min
  56. Bit rate : 64 b/s
  57. Count of elements : 1890
  58. Stream size : 50.8 KiB (0%)
  59. Language : English
  60. Default : Yes
  61. Forced : No
复制代码
花漾女子(台) / 有前途的年轻女子/前程似锦的女孩4k Promising.Young.Woman.2020.2160p.AMZN.WEB-DL.x265.10bit.HDR10plus.DDP5.1.电影下载
有前途的年轻女子/前程似锦的女孩4k Promising.Young.Woman.2020.2160p.AMZN.WEB-DL.x265.10bit.HDR10plus.DDP5.1【12.3 GB】
[Hao4k]前程似锦的女孩4k Promising.Young.Woman.2020.2160p.AMZN.WEB-DL.x265.10bit..torrent (62.14 KB, 售价: 2 K币)
回复

使用道具 举报

全部回复33

苏默金武 发表于 2021-1-25 12:16:57

苏默金武 沙发

2021-1-25 12:16:57

https://www.hao4k.cn/thread-53421-1-1.html#pid1690816 双语完美字幕已提供下载!!!
回复 支持 1 反对 0

使用道具 举报

bbgrnnji 发表于 2021-1-25 19:41:11

bbgrnnji 板凳

2021-1-25 19:41:11

我说过了,6分以上的就下
回复 支持 反对

使用道具 举报

chenkai5710 发表于 2021-1-25 20:15:25

chenkai5710 地板

2021-1-25 20:15:25

没看过,谢谢分享
回复 支持 反对

使用道具 举报

concord3303 发表于 2021-1-25 22:29:10

concord3303 5#

2021-1-25 22:29:10


感谢分享,辛苦了
回复 支持 反对

使用道具 举报

yale 发表于 2021-1-25 22:48:26

yale 6#

2021-1-25 22:48:26

谢谢分享
回复 支持 反对

使用道具 举报

jotiger 发表于 2021-1-26 06:40:48

jotiger 7#

2021-1-26 06:40:48

喜歡犯罪驚悚劇,支持樓主
回复 支持 反对

使用道具 举报

dk30129 发表于 2021-1-26 08:26:55

dk30129 8#

2021-1-26 08:26:55

谢谢分享,顶你!!!
回复 支持 反对

使用道具 举报

joel0811 发表于 2021-1-26 11:07:34

joel0811 9#

2021-1-26 11:07:34


我说过了,6分以上的就下
回复 支持 反对

使用道具 举报

smld1983 发表于 2021-1-26 13:11:34

smld1983 10#

2021-1-26 13:11:34


好电影,很精彩,感谢分享
回复 支持 反对

使用道具 举报

yingxiong_2 发表于 2021-1-26 13:49:29

yingxiong_2 11#

2021-1-26 13:49:29

好电影,谢谢分享
回复 支持 反对

使用道具 举报

chuchan1 发表于 2021-1-26 13:59:48

chuchan1 12#

2021-1-26 13:59:48

谢谢分享精彩的电影
回复 支持 反对

使用道具 举报

zeng30700 发表于 2021-1-26 14:26:58

zeng30700 13#

2021-1-26 14:26:58

谢谢分享!
回复 支持 反对

使用道具 举报

panbell 发表于 2021-1-26 15:35:49

panbell 14#

2021-1-26 15:35:49

谢谢楼主,非常喜欢
回复 支持 反对

使用道具 举报

zjglpzyx 发表于 2021-1-26 20:46:47

zjglpzyx 15#

2021-1-26 20:46:47

支持楼主
回复 支持 反对

使用道具 举报

wuliping45 发表于 2021-1-26 21:27:42

wuliping45 16#

2021-1-26 21:27:42

已下载,谢谢楼主分享优质资源,祝生活愉快!
回复 支持 反对

使用道具 举报

chuchan1 发表于 2021-1-27 09:04:03

chuchan1 17#

2021-1-27 09:04:03

谢谢分享!
回复 支持 反对

使用道具 举报

kobeliangliang 发表于 2021-1-27 17:51:04

kobeliangliang 18#

2021-1-27 17:51:04

感谢分享,辛苦了
回复 支持 反对

使用道具 举报

   发表回复

您需要登录后才可以回帖 登录 | 立即注册

返回列表 本版积分规则

  • 在线客服

  • 返回顶部