微博 微信

Hao4K影音

电影频道
电影封面:
片  名: 越狱协议4k
电影分类: 动作 惊悚 剧情 
国  家: 其他 
年  代: 2020年
分 辨 率: 4K(3840x2160)
电影格式: MKV|REMUX 
画质标准: SDR 
音质编码: Dolby Digital Plus Audio 其他AAC 
电影声道: 5.1声道 
帧数/FPS: 23.976 FPS
电影语言: 英文原版 
资源大小: 6.34 GB
导  演: 大卫·阿尔巴拉
豆瓣评分: 6.9 分
中文字幕: -
剧情简介: 1990年1月29日晚上,智利**过渡时期开始前不久,数十名政治犯从圣地亚哥的监狱中逃脱,24名激进分子途经曼努埃尔·罗德里格斯爱国阵线时,花了18个月的时间挖一个隧道。他们用勺子,叉子和一把螺丝刀,足足挖了80多米长,并将55吨泥垢藏在监狱中。 无论是附近牢房里的普通囚犯,还是每天看守监狱的狱警,都没有发现这49名囚犯的计划——这是智利犯罪史上最令人惊讶和壮观的越狱事件之一。
Jailbreak Pact / Tunnel 49 / Túnel 49/越狱协议4k Jailbreak.Pact.2020.SPANISH.2160p.AMZN.WEB-DL.x265.8bit.SDR.DDP5.1.电影信息
  1. Video
  2. ID : 1
  3. Format : HEVC
  4. Format/Info : High Efficiency Video Coding
  5. Format profile : Main@L5@Main
  6. Codec ID : V_MPEGH/ISO/HEVC
  7. Duration : 2 h 17 min
  8. Bit rate : 5 943 kb/s
  9. Width : 3 840 pixels
  10. Height : 1 600 pixels
  11. Display aspect ratio : 2.40:1
  12. Frame rate mode : Constant
  13. Frame rate : 23.976 (24000/1001) FPS
  14. Standard : NTSC
  15. Color space : YUV
  16. Chroma subsampling : 4:2:0
  17. Bit depth : 8 bits
  18. Bits/(Pixel*Frame) : 0.040
  19. Stream size : 5.72 GiB (90%)
  20. Writing library : x265 2.9_elemental+1-9e0607aa5b6f:[Linux][GCC 4.8.5][64 bit] 8bit+10bit+12bit
  21. Encoding settings : cpuid=1111039 / frame-threads=2 / wpp / no-pmode / no-pme / psnr / ssim / log-level=2 / csv / csv-log-level=2 / input-csp=1 / input-res=3840x1600 / interlace=0 / total-frames=0 / level-idc=50 / high-tier=1 / uhd-bd=0 / ref=5 / no-allow-non-conformance / no-repeat-headers / annexb / no-aud / no-hrd / info / hash=0 / no-temporal-layers / no-open-gop / min-keyint=61 / keyint=120 / gop-lookahead=0 / bframes=8 / b-adapt=2 / b-pyramid / bframe-bias=0 / rc-lookahead=120 / lookahead-slices=4 / scenecut=0 / radl=0 / no-intra-refresh / ctu=64 / min-cu-size=8 / rect / amp / max-tu-size=32 / tu-inter-depth=4 / tu-intra-depth=4 / limit-tu=4 / rdoq-level=2 / dynamic-rd=0.00 / no-ssim-rd / signhide / tskip / nr-intra=100 / nr-inter=600 / no-constrained-intra / strong-intra-smoothing / max-merge=3 / limit-refs=3 / limit-modes / me=3 / subme=3 / merange=57 / temporal-mvp / weightp / weightb / no-analyze-src-pics / deblock=0:0 / no-sao / no-sao-non-deblock / rd=4 / no-early-skip / no-rskip / no-fast-intra / tskip-fast / no-cu-lossless / b-intra / no-splitrd-skip / rdpenalty=0 / psy-rd=4.00 / psy-rdoq=10.00 / no-rd-refine / no-lossless / cbqpoffs=0 / crqpoffs=0 / rc=crf / crf=25.0 / qcomp=0.60 / qpstep=1 / stats-write=0 / stats-read=0 / vbv-maxrate=15000 / vbv-bufsize=20000 / vbv-init=0.9 / crf-max=0.0 / crf-min=0.0 / ipratio=1.10 / pbratio=1.00 / aq-mode=0 / aq-strength=1.50 / no-cutree / zone-count=0 / no-strict-cbr / qg-size=32 / rc-grain / qpmax=69 / qpmin=0 / const-vbv / sar=1 / overscan=0 / videoformat=2 / range=0 / colorprim=1 / transfer=1 / colormatrix=1 / chromaloc=0 / display-window=0 / max-cll=0,0 / min-luma=0 / max-luma=255 / log2-max-poc-lsb=8 / vui-timing-info / vui-hrd-info / slices=1 / opt-qp-pps / no-opt-ref-list-length-pps / no-multi-pass-opt-rps / scenecut-bias=0.05 / no-opt-cu-delta-qp / no-aq-motion / no-hdr / no-hdr-opt / no-dhdr10-opt / no-idr-recovery-sei / analysis-reuse-level=5 / scale-factor=0 / refine-intra=0 / refine-inter=0 / refine-mv=0 / no-limit-sao / ctu-info=0 / no-lowpass-dct / refine-mv-type=0 / copy-pic=1 / max-ausize-factor=1.0 / no-dynamic-refine / no-single-sei
  22. Default : Yes
  23. Forced : No
  24. Color range : Limited
  25. Color primaries : BT.709
  26. Transfer characteristics : BT.709
  27. Matrix coefficients : BT.709

  28. Audio
  29. ID : 2
  30. Format : E-AC-3
  31. Format/Info : Enhanced AC-3
  32. Commercial name : Dolby Digital Plus
  33. Codec ID : A_EAC3
  34. Duration : 2 h 17 min
  35. Bit rate mode : Constant
  36. Bit rate : 640 kb/s
  37. Channel(s) : 6 channels
  38. Channel layout : L R C LFE Ls Rs
  39. Sampling rate : 48.0 kHz
  40. Frame rate : 31.250 FPS (1536 SPF)
  41. Compression mode : Lossy
  42. Stream size : 631 MiB (10%)
  43. Title : DDP 5.1
  44. Language : Spanish
  45. Service kind : Complete Main
  46. Default : No
  47. Forced : No

  48. Text #1
  49. ID : 3
  50. Format : UTF-8
  51. Codec ID : S_TEXT/UTF8
  52. Codec ID/Info : UTF-8 Plain Text
  53. Duration : 2 h 11 min
  54. Bit rate : 43 b/s
  55. Count of elements : 1393
  56. Stream size : 42.0 KiB (0%)
  57. Language : English
  58. Default : Yes
  59. Forced : No

  60. Text #2
  61. ID : 4
  62. Format : UTF-8
  63. Codec ID : S_TEXT/UTF8
  64. Codec ID/Info : UTF-8 Plain Text
  65. Duration : 2 h 13 min
  66. Bit rate : 56 b/s
  67. Count of elements : 1536
  68. Stream size : 55.0 KiB (0%)
  69. Language : Spanish
  70. Default : No
  71. Forced : No
复制代码

Jailbreak Pact / Tunnel 49 / Túnel 49/越狱协议4k Jailbreak.Pact.2020.SPANISH.2160p.AMZN.WEB-DL.x265.8bit.SDR.DDP5.1.电影下载

越狱协议4k Jailbreak.Pact.2020.SPANISH.2160p.AMZN.WEB-DL.x265.8bit.SDR.DDP5.1.【6.34 GB】
[Hao4k]越狱协议4k Jailbreak.Pact.2020.SPANISH.2160p.AMZN.WEB-DL.x265.8bit.SDR.DD.torrent (32.27 KB)
回复

使用道具 举报

全部回复87

zqx19862006 发表于 2021-1-18 19:53:43

zqx19862006 沙发

2021-1-18 19:53:43

好的资源,欣赏中
回复 支持 反对

使用道具 举报

andytp 发表于 2021-1-18 20:18:25

andytp 板凳

2021-1-18 20:18:25

得分还蛮高的,下载看看
回复 支持 反对

使用道具 举报

木村小林 发表于 2021-1-18 21:09:23

木村小林 地板

2021-1-18 21:09:23

跪求中文字幕
回复 支持 1 反对 0

使用道具 举报

blackhead 发表于 2021-1-18 21:11:48

blackhead 5#

2021-1-18 21:11:48

謝謝樓主分享
回复 支持 反对

使用道具 举报

罗洋 发表于 2021-1-18 21:46:51

罗洋 7#

2021-1-18 21:46:51

这个容量不大,不知道好看不。
回复 支持 反对

使用道具 举报

bobo8614 发表于 2021-1-18 23:27:46

bobo8614 8#

2021-1-18 23:27:46

这么小?真的是4K吗?
回复 支持 反对

使用道具 举报

concord3303 发表于 2021-1-18 23:39:56

concord3303 9#

2021-1-18 23:39:56

謝謝樓主分享
回复 支持 反对

使用道具 举报

chjcyc 发表于 2021-1-19 00:03:36

chjcyc 10#

2021-1-19 00:03:36

老道的墨西哥人,应该是不错的,谢谢分享
回复 支持 反对

使用道具 举报

dk30129 发表于 2021-1-19 08:28:09

dk30129 12#

2021-1-19 08:28:09

谢谢分享,楼主辛苦了!!!
回复 支持 反对

使用道具 举报

世爵39 发表于 2021-1-19 08:29:24

世爵39 13#

2021-1-19 08:29:24

得分还蛮高的,下载看
回复 支持 反对

使用道具 举报

chenjilong66 发表于 2021-1-19 08:33:26

chenjilong66 14#

2021-1-19 08:33:26

都很久没更新这样的动作电影了,谢谢分享。
回复 支持 反对

使用道具 举报

世爵39 发表于 2021-1-19 08:41:24

世爵39 15#

2021-1-19 08:41:24

楼主辛苦了!!!
回复 支持 反对

使用道具 举报

世爵39 发表于 2021-1-19 08:54:20

世爵39 17#

2021-1-19 08:54:20

跪求中文字幕
回复 支持 反对

使用道具 举报

hejian 发表于 2021-1-19 09:01:47

hejian 18#

2021-1-19 09:01:47


谢谢分享,楼主辛苦了!!!
回复 支持 反对

使用道具 举报

   发表回复

您需要登录后才可以回帖 登录 | 立即注册

返回列表 本版积分规则

  • 在线客服

  • 返回顶部