微博 微信

Hao4K影音

电影频道
电影封面:
片  名: 世界新闻4k
电影分类: 动作 冒险 剧情 西部 
国  家: 美国 
年  代: 2020年
分 辨 率: 4K(3840x2160)
电影格式: MKV|REMUX 
画质标准: HDR HDR10 SDR 
音质编码: Dolby Digital Plus Audio 
电影声道: 5.1声道 
帧数/FPS: 31.250 FPS
电影语言: 英文原版 
资源大小: 12.73 GB
导  演: 保罗·格林格拉斯
豆瓣评分: 7.0 分
中文字幕: /thread-53486-1-1.html
剧情简介: 美国内战结束后五年,三场战争的退伍军官杰佛森凯尔基得上尉(汤姆·汉克斯 饰),现在以读报人的身份从一个小镇到另一个小镇,和当地居民分享世界各地的精彩新闻。他在德州的平原遇到乔韩娜(海伦娜·泽格尔 饰),一 个六年前被凯奥瓦印第安人掳走并被收养的十岁女孩。乔韩娜对她未曾体验过的世界充满敌意,而且被迫被送回她的阿姨和姨丈身边。基得上尉答应护送这女孩回到她依照法律应该属于的地方。他们必须在环境严苛的野外跋山涉水好几百英哩,而且这两人在寻找一个他们都可以称为家园的地方时,将面对来自人类和大自然的巨大挑战。
  该片根据波莱特·吉尔斯同名小说改编。
结叛同行(港) / 读报人(台)/世界新闻4k News.of.the.World.2020.2160p.AMZN.WEB-DL.x265.10bit.HDR10plus.DDP5.1.电影信息
  1. Video
  2. ID : 1
  3. Format : HEVC
  4. Format/Info : High Efficiency Video Coding
  5. Format profile : Main 10@L5@Main
  6. HDR format : SMPTE ST 2094 App 4, Version 1, HDR10+ Profile B compatible
  7. Codec ID : V_MPEGH/ISO/HEVC
  8. Duration : 1 h 58 min
  9. Bit rate : 14.8 Mb/s
  10. Width : 3 840 pixels
  11. Height : 1 600 pixels
  12. Display aspect ratio : 2.40:1
  13. Frame rate mode : Constant
  14. Frame rate : 23.976 (24000/1001) FPS
  15. Color space : YUV
  16. Chroma subsampling : 4:2:0
  17. Bit depth : 10 bits
  18. Bits/(Pixel*Frame) : 0.100
  19. Stream size : 12.2 GiB (96%)
  20. Default : Yes
  21. Forced : No
  22. Color range : Limited
  23. Color primaries : BT.2020
  24. Transfer characteristics : PQ
  25. Matrix coefficients : BT.2020 non-constant
  26. Mastering display color primaries : Display P3
  27. Mastering display luminance : min: 0.0050 cd/m2, max: 1000 cd/m2
  28. Maximum Content Light Level : 1000 cd/m2
  29. Maximum Frame-Average Light Level : 184 cd/m2

  30. Audio
  31. ID : 2
  32. Format : E-AC-3
  33. Format/Info : Enhanced AC-3
  34. Commercial name : Dolby Digital Plus
  35. Codec ID : A_EAC3
  36. Duration : 1 h 58 min
  37. Bit rate mode : Constant
  38. Bit rate : 640 kb/s
  39. Channel(s) : 6 channels
  40. Channel layout : L R C LFE Ls Rs
  41. Sampling rate : 48.0 kHz
  42. Frame rate : 31.250 FPS (1536 SPF)
  43. Compression mode : Lossy
  44. Stream size : 542 MiB (4%)
  45. Title : DDP 5.1
  46. Language : English
  47. Service kind : Complete Main
  48. Default : No
  49. Forced : No

  50. Text #1
  51. ID : 3
  52. Format : UTF-8
  53. Codec ID : S_TEXT/UTF8
  54. Codec ID/Info : UTF-8 Plain Text
  55. Duration : 1 h 50 min
  56. Bit rate : 31 b/s
  57. Count of elements : 1010
  58. Stream size : 25.9 KiB (0%)
  59. Language : English
  60. Default : No
  61. Forced : No

  62. Text #2
  63. ID : 4
  64. Format : UTF-8
  65. Codec ID : S_TEXT/UTF8
  66. Codec ID/Info : UTF-8 Plain Text
  67. Duration : 1 h 58 min
  68. Bit rate : 38 b/s
  69. Count of elements : 1358
  70. Stream size : 33.4 KiB (0%)
  71. Title : SDH
  72. Language : English
  73. Default : No
  74. Forced : No

  75. Menu
  76. 00:00:00.000 : en:Studio Logo
  77. 00:00:30.000 : en:Scene 2
  78. 00:03:41.000 : en:Scene 3
  79. 00:09:58.000 : en:Scene 4
  80. 00:15:37.000 : en:Scene 5
  81. 00:19:51.000 : en:Scene 6
  82. 00:23:00.000 : en:Scene 7
  83. 00:30:30.000 : en:Scene 8
  84. 00:35:48.000 : en:Scene 9
  85. 00:42:04.000 : en:Scene 10
  86. 00:51:10.000 : en:Scene 11
  87. 00:58:46.000 : en:Scene 12
  88. 01:01:41.000 : en:Scene 13
  89. 01:09:53.000 : en:Scene 14
  90. 01:12:20.000 : en:Scene 15
  91. 01:16:41.000 : en:Scene 16
  92. 01:23:03.000 : en:Scene 17
  93. 01:25:51.000 : en:Scene 18
  94. 01:28:19.000 : en:Scene 19
  95. 01:31:39.000 : en:Scene 20
  96. 01:33:42.000 : en:Scene 21
  97. 01:37:24.000 : en:Scene 22
  98. 01:51:00.000 : en:Scene 23
  99. 01:53:36.000 : en:End Credits
复制代码

结叛同行(港) / 读报人(台)/世界新闻4k News.of.the.World.2020.2160p.AMZN.WEB-DL.x265.10bit.HDR10plus.DDP5.1.电影下载

世界新闻4k News.of.the.World.2020.2160p.AMZN.WEB-DL.x265.10bit.HDR10plus.DDP5.1【4K HDR 12.73 GB】
[Hao4k]世界新闻4k News.of.the.World.2020.2160p.AMZN.WEB-DL.x265.10bit.HDR10plus..torrent (64.22 KB, 售价: 2 K币)
回复

使用道具 举报

全部回复4

dyczw 发表于 2021-1-20 09:50:33

dyczw 沙发

2021-1-20 09:50:33

感谢分享,辛苦了!
回复 支持 反对

使用道具 举报

xv6950 发表于 2021-1-20 09:57:50

xv6950 板凳

2021-1-20 09:57:50


感谢分享,期待真4k
回复 支持 反对

使用道具 举报

bonna 发表于 2021-1-20 10:41:45

bonna 地板

2021-1-20 10:41:45

汤姆汉克斯,必看!
回复 支持 反对

使用道具 举报

kennethlin168 发表于 2021-1-20 10:45:17

kennethlin168 5#

2021-1-20 10:45:17

感谢分享,期待真4k
回复 支持 反对

使用道具 举报

   发表回复

您需要登录后才可以回帖 登录 | 立即注册

返回列表 本版积分规则

  • 在线客服

  • 返回顶部