微博 微信

Hao4K影音

[美剧] 梅尔罗斯4k Patrick.Melrose.S01.2160p.美剧下载

2021-2-11 11:01:44 47410 6 |只看大图 回帖奖励 |倒序浏览 |阅读模式

大红色 楼主

2021-1-21 10:34:39

电视剧频道
电视剧封面:
电视剧名: 梅尔罗斯4k
年  代: 2018  
国  家: 英国
类  别:  
语  言: 英语
字  幕: -
上映日期: 2018-05-12
文件格式: mkv    
视频效果: 4K(3840x2160)    
资源大小: 32.27 GB
片  长: 60 分钟
导  演: 爱德华·贝尔格
剧情简介: 本尼迪克特·康伯巴奇将出演Showtime电视台最新限定剧《梅尔罗斯》,全剧一共长5集。“卷福”将饰演男主人公梅尔罗斯。他从小受到虐待,长大后心理创伤演变成对药物的依赖,在努力下最终痊愈。
浮生若梦/梅尔罗斯4k Patrick.Melrose.S01.2160p.STAN.WEB-DL.x265.10bit.HDR.DTS-HD.MA.5.1.美剧信息
  1. Video
  2. ID : 1
  3. Format : HEVC
  4. Format/Info : High Efficiency Video Coding
  5. HDR format : SMPTE ST 2086, HDR10 compatible
  6. Codec ID : V_MPEGH/ISO/HEVC
  7. Duration : 1 h 1 min
  8. Bit rate : 14.0 Mb/s
  9. Width : 3 840 pixels
  10. Height : 2 160 pixels
  11. Display aspect ratio : 16:9
  12. Frame rate mode : Constant
  13. Frame rate : 23.976 (24000/1001) FPS
  14. Color space : YUV
  15. Chroma subsampling : 4:2:0
  16. Bit depth : 10 bits
  17. Bits/(Pixel*Frame) : 0.070
  18. Stream size : 6.01 GiB (88%)
  19. Default : Yes
  20. Forced : No
  21. Color range : Limited
  22. Color primaries : BT.2020
  23. Transfer characteristics : PQ
  24. Matrix coefficients : BT.2020 non-constant
  25. Mastering display color primaries : R: x=0.150000 y=0.060000, G: x=0.680000 y=0.320000, B: x=0.320000 y=0.265000, White point: x=0.312680 y=0.329000
  26. Mastering display luminance : min: 0.0050 cd/m2, max: 1000 cd/m2
  27. Maximum Content Light Level : 1000 cd/m2
  28. Maximum Frame-Average Light Level : 427 cd/m2

  29. Audio
  30. ID : 2
  31. Format : DTS XLL
  32. Format/Info : Digital Theater Systems
  33. Commercial name : DTS-HD Master Audio
  34. Codec ID : A_DTS
  35. Duration : 1 h 1 min
  36. Bit rate mode : Variable
  37. Bit rate : 1 914 kb/s
  38. Channel(s) : 6 channels
  39. Channel layout : C L R Ls Rs LFE
  40. Sampling rate : 48.0 kHz
  41. Frame rate : 93.750 FPS (512 SPF)
  42. Bit depth : 16 bits
  43. Compression mode : Lossless
  44. Delay relative to video : 584 ms
  45. Stream size : 844 MiB (12%)
  46. Title : DTS-HD MA 5.1
  47. Language : English
  48. Default : Yes
  49. Forced : No

  50. Text #1
  51. ID : 3
  52. Format : UTF-8
  53. Codec ID : S_TEXT/UTF8
  54. Codec ID/Info : UTF-8 Plain Text
  55. Duration : 13 s 931 ms
  56. Bit rate : 33 b/s
  57. Count of elements : 3
  58. Stream size : 58.0 Bytes (0%)
  59. Title : Forced
  60. Language : English
  61. Default : Yes
  62. Forced : Yes

  63. Text #2
  64. ID : 4
  65. Format : UTF-8
  66. Codec ID : S_TEXT/UTF8
  67. Codec ID/Info : UTF-8 Plain Text
  68. Duration : 1 h 0 min
  69. Bit rate : 55 b/s
  70. Count of elements : 816
  71. Stream size : 24.5 KiB (0%)
  72. Language : English
  73. Default : No
  74. Forced : No

  75. Text #3
  76. ID : 5
  77. Format : UTF-8
  78. Codec ID : S_TEXT/UTF8
  79. Codec ID/Info : UTF-8 Plain Text
  80. Duration : 1 h 0 min
  81. Bit rate : 61 b/s
  82. Count of elements : 910
  83. Stream size : 27.4 KiB (0%)
  84. Title : SDH
  85. Language : English
  86. Default : No
  87. Forced : No

  88. Menu
  89. 00:00:00.584 : en:Ruined Beauty
  90. 00:09:55.845 : en:Our Special Day
  91. 00:21:20.988 : en:The O.K. Corral
  92. 00:32:06.966 : en:Don\'t Squash the Figs
  93. 00:42:20.830 : en:My Cup Runneth Over
  94. 00:49:24.836 : en:Question of Sentiment
复制代码

浮生若梦/梅尔罗斯4k Patrick.Melrose.S01.2160p.STAN.WEB-DL.x265.10bit.HDR.DTS-HD.MA.5.1.美剧下载

梅尔罗斯4k Patrick.Melrose.S01.2160p.STAN.WEB-DL.x265.10bit.HDR.DTS-HD.MA.5.1【32.27 GB】
[Hao4k]梅尔罗斯4k Patrick.Melrose.S01.2160p.STAN.WEB-DL.x265.10bit.HDR.DTS-HD.MA.torrent (81.75 KB)
回复

使用道具 举报

全部回复6

ly000111 发表于 2021-1-21 12:12:30

ly000111 沙发

2021-1-21 12:12:30

不知道好不好看
回复 支持 反对

使用道具 举报

别打我的头 发表于 2021-2-7 10:57:34

别打我的头 5#

2021-2-7 10:57:34

看见卷福就滚进来了
回复 支持 反对

使用道具 举报

别打我的头 发表于 2021-2-9 08:34:46

别打我的头 6#

2021-2-9 08:34:46

下到42%动不了了
回复 支持 反对

使用道具 举报

无所畏惧666 发表于 2021-2-11 11:01:44

无所畏惧666 7#

2021-2-11 11:01:44

没有中文字幕
回复 支持 反对

使用道具 举报

   发表回复

您需要登录后才可以回帖 登录 | 立即注册

返回列表 本版积分规则

:
白银玩家
:
未填写

主题

帖子

积分995

图文推荐

  • 铁威马NAS数据备份方案教程

    面对各式各样的文件,和不同的备份需求,而铁威马

  • 【美影 4K】亡命驾驶将重制发布4K UHD蓝光

    最新消息:2011年美国动作/犯罪片《亡命驾驶》将

  • 【美影 4K】哥斯拉大战金刚上映后将发布4K

    最新消息:2021年美国科幻冒险动作片《哥斯拉大战

  • 汤姆·赫兰德亲自曝光《蜘蛛侠:英雄归来3

    稍早饰演MCUSpider-Man的人气演员TomHolland亲

  • 【美影 4K】极速赛车手将重制发布4K UHD蓝

    最新消息:2008年由莉莉·沃卓斯基/拉娜·沃卓斯

  • 在线客服

  • 返回顶部