微博 微信

Hao4K影音

[美剧] 真相探寻者4k Truth.Seekers.S01.2160p.美剧下载

2021-2-8 16:58:34 24517 6 |只看大图 回帖奖励 |倒序浏览 |阅读模式

大红色 楼主

2021-1-22 11:14:30

电视剧频道
电视剧封面:
电视剧名: 真相探寻者4k
年  代: 2020  
国  家: 美国
类  别: 喜剧 
语  言: 英语
字  幕: -
上映日期: 2020-10-30
文件格式: mkv    
视频效果: 4K(3840x2160)    
资源大小: 23.76 GB
片  长: 29 分钟
导  演: Jim Field Smith
剧情简介: 好搭档西蒙·佩吉和尼克·弗罗斯特又合作推新作了,这次将通过两人的厂牌Stolen Picture制作一部超自然题材的恐怖/喜剧剧集《探寻真相者》(Truth Seekers),以三人组成的灵异事件调查小组为主角,每集讲一个灵异事件,该剧的幽默和世界观都会很英式,与索尼电视合作,已经在市面上开始寻找下家。
  佩吉说:“这仨本来只是小打小闹,结果一不小心事业还走出国门走向世界了。未知事物的神秘感,这是一种所有人都懂的语言。就像《僵尸肖恩》是很地区性的北部伦敦故事,但每个人都明白丧尸电影这门语言。”
  这是Stolen Picture旗下的首部剧集,而旗下首部电影《屠宰场法则》已经拍完,在后期制作中了。佩吉说,这是一部很讽刺的电影,关于英国“自我抛售”,“以及水力压裂技术,释放出了一些可怕的地下恶魔”。
  两人演的影剧都不少,也笑称最近“刚把手头的账还清”,但表示“最终还是会变成全心全意做Stolen Picture”。
探寻真相者 / 真相追求者/真相探寻者4k Truth.Seekers.S01.2160p.WEB-DL.x265.10bit.HDR10plus.DDP5.1.美剧信息
  1. Video
  2. ID : 1
  3. Format : HEVC
  4. Format/Info : High Efficiency Video Coding
  5. Format profile : Main 10@L5@Main
  6. HDR format : SMPTE ST 2094 App 4, Version 1, HDR10+ Profile B compatible
  7. Codec ID : V_MPEGH/ISO/HEVC
  8. Duration : 32 min 43 s
  9. Bit rate : 14.7 Mb/s
  10. Width : 3 840 pixels
  11. Height : 2 160 pixels
  12. Display aspect ratio : 16:9
  13. Frame rate mode : Constant
  14. Frame rate : 23.976 (24000/1001) FPS
  15. Color space : YUV
  16. Chroma subsampling : 4:2:0
  17. Bit depth : 10 bits
  18. Bits/(Pixel*Frame) : 0.074
  19. Stream size : 3.37 GiB (96%)
  20. Default : Yes
  21. Forced : No
  22. Color range : Limited
  23. Color primaries : BT.2020
  24. Transfer characteristics : PQ
  25. Matrix coefficients : BT.2020 non-constant
  26. Mastering display color primaries : Display P3
  27. Mastering display luminance : min: 0.0001 cd/m2, max: 1000 cd/m2
  28. Maximum Content Light Level : 994 cd/m2
  29. Maximum Frame-Average Light Level : 181 cd/m2

  30. Audio
  31. ID : 2
  32. Format : E-AC-3
  33. Format/Info : Enhanced AC-3
  34. Commercial name : Dolby Digital Plus
  35. Codec ID : A_EAC3
  36. Duration : 32 min 43 s
  37. Bit rate mode : Constant
  38. Bit rate : 640 kb/s
  39. Channel(s) : 6 channels
  40. Channel layout : L R C LFE Ls Rs
  41. Sampling rate : 48.0 kHz
  42. Frame rate : 31.250 FPS (1536 SPF)
  43. Compression mode : Lossy
  44. Stream size : 150 MiB (4%)
  45. Language : English
  46. Service kind : Complete Main
  47. Default : Yes
  48. Forced : No

  49. Text #1
  50. ID : 3
  51. Format : UTF-8
  52. Codec ID : S_TEXT/UTF8
  53. Codec ID/Info : UTF-8 Plain Text
  54. Duration : 31 min 19 s
  55. Bit rate : 72 b/s
  56. Count of elements : 590
  57. Stream size : 16.7 KiB (0%)
  58. Language : English
  59. Default : No
  60. Forced : No

  61. Text #2
  62. ID : 4
  63. Format : UTF-8
  64. Codec ID : S_TEXT/UTF8
  65. Codec ID/Info : UTF-8 Plain Text
  66. Duration : 30 min 52 s
  67. Bit rate : 87 b/s
  68. Count of elements : 454
  69. Stream size : 19.7 KiB (0%)
  70. Language : Arabic
  71. Default : No
  72. Forced : No

  73. Text #3
  74. ID : 5
  75. Format : UTF-8
  76. Codec ID : S_TEXT/UTF8
  77. Codec ID/Info : UTF-8 Plain Text
  78. Duration : 32 min 12 s
  79. Bit rate : 58 b/s
  80. Count of elements : 449
  81. Stream size : 13.8 KiB (0%)
  82. Language : German
  83. Default : No
  84. Forced : No

  85. Text #4
  86. ID : 6
  87. Format : UTF-8
  88. Codec ID : S_TEXT/UTF8
  89. Codec ID/Info : UTF-8 Plain Text
  90. Duration : 32 min 12 s
  91. Bit rate : 61 b/s
  92. Count of elements : 455
  93. Stream size : 14.5 KiB (0%)
  94. Title : España
  95. Language : Spanish
  96. Default : No
  97. Forced : No

  98. Text #5
  99. ID : 7
  100. Format : UTF-8
  101. Codec ID : S_TEXT/UTF8
  102. Codec ID/Info : UTF-8 Plain Text
  103. Duration : 32 min 12 s
  104. Bit rate : 59 b/s
  105. Count of elements : 449
  106. Stream size : 14.0 KiB (0%)
  107. Language : Spanish
  108. Default : No
  109. Forced : No

  110. Text #6
  111. ID : 8
  112. Format : UTF-8
  113. Codec ID : S_TEXT/UTF8
  114. Codec ID/Info : UTF-8 Plain Text
  115. Duration : 32 min 12 s
  116. Bit rate : 54 b/s
  117. Count of elements : 432
  118. Stream size : 12.9 KiB (0%)
  119. Language : French
  120. Default : No
  121. Forced : No

  122. Text #7
  123. ID : 9
  124. Format : UTF-8
  125. Codec ID : S_TEXT/UTF8
  126. Codec ID/Info : UTF-8 Plain Text
  127. Duration : 30 min 52 s
  128. Bit rate : 158 b/s
  129. Count of elements : 454
  130. Stream size : 35.7 KiB (0%)
  131. Language : Hindi
  132. Default : No
  133. Forced : No

  134. Text #8
  135. ID : 10
  136. Format : UTF-8
  137. Codec ID : S_TEXT/UTF8
  138. Codec ID/Info : UTF-8 Plain Text
  139. Duration : 32 min 12 s
  140. Bit rate : 62 b/s
  141. Count of elements : 450
  142. Stream size : 14.8 KiB (0%)
  143. Language : Italian
  144. Default : No
  145. Forced : No

  146. Text #9
  147. ID : 11
  148. Format : UTF-8
  149. Codec ID : S_TEXT/UTF8
  150. Codec ID/Info : UTF-8 Plain Text
  151. Duration : 32 min 3 s
  152. Bit rate : 51 b/s
  153. Count of elements : 444
  154. Stream size : 12.2 KiB (0%)
  155. Language : Japanese
  156. Default : No
  157. Forced : No

  158. Text #10
  159. ID : 12
  160. Format : UTF-8
  161. Codec ID : S_TEXT/UTF8
  162. Codec ID/Info : UTF-8 Plain Text
  163. Duration : 32 min 12 s
  164. Bit rate : 64 b/s
  165. Count of elements : 457
  166. Stream size : 15.2 KiB (0%)
  167. Language : Korean
  168. Default : No
  169. Forced : No

  170. Text #11
  171. ID : 13
  172. Format : UTF-8
  173. Codec ID : S_TEXT/UTF8
  174. Codec ID/Info : UTF-8 Plain Text
  175. Duration : 32 min 12 s
  176. Bit rate : 53 b/s
  177. Count of elements : 434
  178. Stream size : 12.5 KiB (0%)
  179. Language : Dutch
  180. Default : No
  181. Forced : No

  182. Text #12
  183. ID : 14
  184. Format : UTF-8
  185. Codec ID : S_TEXT/UTF8
  186. Codec ID/Info : UTF-8 Plain Text
  187. Duration : 30 min 52 s
  188. Bit rate : 62 b/s
  189. Count of elements : 450
  190. Stream size : 14.0 KiB (0%)
  191. Language : Polish
  192. Default : No
  193. Forced : No

  194. Text #13
  195. ID : 15
  196. Format : UTF-8
  197. Codec ID : S_TEXT/UTF8
  198. Codec ID/Info : UTF-8 Plain Text
  199. Duration : 32 min 12 s
  200. Bit rate : 59 b/s
  201. Count of elements : 449
  202. Stream size : 14.1 KiB (0%)
  203. Language : Portuguese
  204. Default : No
  205. Forced : No

  206. Text #14
  207. ID : 16
  208. Format : UTF-8
  209. Codec ID : S_TEXT/UTF8
  210. Codec ID/Info : UTF-8 Plain Text
  211. Duration : 32 min 12 s
  212. Bit rate : 99 b/s
  213. Count of elements : 456
  214. Stream size : 23.5 KiB (0%)
  215. Language : Russian
  216. Default : No
  217. Forced : No

  218. Text #15
  219. ID : 17
  220. Format : UTF-8
  221. Codec ID : S_TEXT/UTF8
  222. Codec ID/Info : UTF-8 Plain Text
  223. Duration : 32 min 12 s
  224. Bit rate : 60 b/s
  225. Count of elements : 450
  226. Stream size : 14.3 KiB (0%)
  227. Language : Turkish
  228. Default : No
  229. Forced : No

  230. Menu
  231. 00:00:00.000 : en:Amazon Original
  232. 00:00:05.000 : en:Air raids
  233. 00:02:06.000 : en:Title Sequence
  234. 00:02:14.000 : en:Searching the van
  235. 00:03:59.000 : en:A haunted new assignment
  236. 00:04:50.000 : en:Gus\'s home
  237. 00:07:40.000 : en:Personal lives are complicated
  238. 00:09:24.000 : en:Arrival at The Portland Beacon
  239. 00:11:18.000 : en:Sneaking around
  240. 00:12:48.000 : en:A tour of the property
  241. 00:14:22.000 : en:Running tests
  242. 00:18:15.000 : en:Richard surfs the internet
  243. 00:19:43.000 : en:Exploring room 2
  244. 00:22:37.000 : en:Time to move on
  245. 00:28:18.000 : en:Good news for Dave
  246. 00:28:31.000 : en:Happy customers
  247. 00:29:53.000 : en:Returning home
  248. 00:31:24.000 : en:End Credits
复制代码

探寻真相者 / 真相追求者/真相探寻者4k Truth.Seekers.S01.2160p.WEB-DL.x265.10bit.HDR10plus.DDP5.1.美剧下载

真相探寻者4k Truth.Seekers.S01.2160p.WEB-DL.x265.10bit.HDR10plus.DDP5.1【23.76 GB】
[Hao4k]真相探寻者4k Truth.Seekers.S01.2160p.WEB-DL.x265.10bit.HDR10plus.DDP5.1-P.torrent (60.63 KB)
回复

使用道具 举报

全部回复6

漂亮脸蛋 发表于 2021-1-24 10:21:43

漂亮脸蛋 沙发

2021-1-24 10:21:43

感谢分享了,好剧
回复 支持 反对

使用道具 举报

cqwhacker 发表于 2021-1-25 10:14:46

cqwhacker 板凳

2021-1-25 10:14:46

这是个好资源,谢谢分享.
回复 支持 反对

使用道具 举报

mftz 发表于 2021-1-26 14:40:05

mftz 地板

2021-1-26 14:40:05

想看看
回复 支持 反对

使用道具 举报

月光麦田 发表于 2021-1-29 19:27:07

月光麦田 5#

2021-1-29 19:27:07

楼主辛苦啦
回复 支持 反对

使用道具 举报

cc158602358 发表于 2021-2-5 10:01:24

cc158602358 6#

2021-2-5 10:01:24


感谢分享了,好剧
回复 支持 反对

使用道具 举报

intron 发表于 2021-2-8 16:58:34

intron 7#

2021-2-8 16:58:34

好剧,谢谢分享!!
回复 支持 反对

使用道具 举报

   发表回复

您需要登录后才可以回帖 登录 | 立即注册

返回列表 本版积分规则

:
白银玩家
:
未填写

主题

帖子

积分1006

图文推荐

  • 99新3T硬盘带资源出售

    可烤满4K、1080P,豆瓣高分影片。 399元烤满

  • 【已售】出售115永久皇冠VIP

    115网盘: 超大空间、高速传输、200G大文

  • 出开博尔Q20PLUS+戴尔UP2718q hdr1000显示

    设备升级了,转让纯一手开博尔Q20PLUS 4K硬盘播放

  • 出99新的Xbox one X港服,只买了两个月寻有

    只买了两个月的Xbox one X港服,寻有缘人,拿回来

  • 杰士RP8000F落地音箱一对,全新拆箱,刚到

    杰士RP8000F(280F升级款)落地音箱一对,全新到

  • 在线客服

  • 返回顶部