微博 微信

Hao4K影音

电影频道
电影封面:
片  名: In.and.of.Itself.
电影分类: 纪录片 
国  家: 美国 
年  代: 2020年
分 辨 率: 4K(3840x2160)
电影格式: MKV|REMUX 
画质标准: 其他 
音质编码: Dolby Digital Plus Audio 
电影声道: 5.1声道 
帧数/FPS: 23.976 FPS
电影语言: 英文原版 
资源大小: 9.70 GB
导  演: 弗兰克·奥兹
豆瓣评分: 9.1 分
中文字幕: -
剧情简介: Storyteller and Conceptual Magician Derek DelGaudio attempts to understand the illusory nature of identity and answer the deceptively simple question \'Who am I?\'
In.and.of.Itself.2020.2160p.WEB.H265.电影信息
  1. Video
  2. ID : 1
  3. Format : HEVC
  4. Format/Info : High Efficiency Video Coding
  5. Format profile : Main 10@L5.1@Main
  6. Codec ID : V_MPEGH/ISO/HEVC
  7. Duration : 1 h 30 min
  8. Bit rate : 15.1 Mb/s
  9. Width : 3 840 pixels
  10. Height : 2 160 pixels
  11. Display aspect ratio : 16:9
  12. Frame rate mode : Constant
  13. Frame rate : 23.976 (24000/1001) FPS
  14. Color space : YUV
  15. Chroma subsampling : 4:2:0
  16. Bit depth : 10 bits
  17. Bits/(Pixel*Frame) : 0.076
  18. Stream size : 9.54 GiB (98%)
  19. Default : Yes
  20. Forced : No

  21. Audio
  22. ID : 2
  23. Format : E-AC-3
  24. Format/Info : Enhanced AC-3
  25. Commercial name : Dolby Digital Plus
  26. Codec ID : A_EAC3
  27. Duration : 1 h 30 min
  28. Bit rate mode : Constant
  29. Bit rate : 256 kb/s
  30. Channel(s) : 6 channels
  31. Channel layout : L R C LFE Ls Rs
  32. Sampling rate : 48.0 kHz
  33. Frame rate : 31.250 FPS (1536 SPF)
  34. Compression mode : Lossy
  35. Stream size : 165 MiB (2%)
  36. Language : English
  37. Service kind : Complete Main
  38. Default : Yes
  39. Forced : No

  40. Text #1
  41. ID : 3
  42. Format : UTF-8
  43. Codec ID : S_TEXT/UTF8
  44. Codec ID/Info : UTF-8 Plain Text
  45. Duration : 1 h 25 min
  46. Bit rate : 73 b/s
  47. Count of elements : 1377
  48. Stream size : 46.3 KiB (0%)
  49. Title : English
  50. Language : English
  51. Default : No
  52. Forced : No

  53. Text #2
  54. ID : 4
  55. Format : UTF-8
  56. Codec ID : S_TEXT/UTF8
  57. Codec ID/Info : UTF-8 Plain Text
  58. Duration : 1 h 30 min
  59. Bit rate : 69 b/s
  60. Count of elements : 1553
  61. Stream size : 45.7 KiB (0%)
  62. Title : Spanish
  63. Language : Spanish
  64. Default : No
  65. Forced : No
复制代码

In.and.of.Itself.2020.2160p.WEB.H265.电影下载

In.and.of.Itself.2020.2160p.WEB.H265【9.70 GB】
In.and.of.Itself.2020.2160p.WEB.H265-HUZZAH.torrent (49.09 KB)
回复

使用道具 举报

全部回复35

魔兽风筝 发表于 2021-1-22 16:25:14

魔兽风筝 沙发

2021-1-22 16:25:14

这么高分。。。怎么没有原盘
回复 支持 反对

使用道具 举报

bbgrnnji 发表于 2021-1-22 17:16:32

bbgrnnji 板凳

2021-1-22 17:16:32

这个是绝对要顶的
回复 支持 反对

使用道具 举报

leish 发表于 2021-1-22 18:30:43

leish 5#

2021-1-22 18:30:43

剧情简介看不懂啊
回复 支持 反对

使用道具 举报

chuchan1 发表于 2021-1-22 18:31:08

chuchan1 6#

2021-1-22 18:31:08

感谢楼主免费分享好资源!!!
回复 支持 反对

使用道具 举报

zhan198239 发表于 2021-1-22 18:48:38

zhan198239 7#

2021-1-22 18:48:38


剧情简介看不懂啊
回复 支持 反对

使用道具 举报

玲春生 发表于 2021-1-22 20:26:45

玲春生 8#

2021-1-22 20:26:45

一脸懵逼,二脸懵逼,三脸懵逼。。。。。。
回复 支持 反对

使用道具 举报

davidavid 发表于 2021-1-22 20:28:30

davidavid 10#

2021-1-22 20:28:30

免费啊,感谢分享
回复 支持 反对

使用道具 举报

罗洋 发表于 2021-1-22 20:53:38

罗洋 11#

2021-1-22 20:53:38

没听过也,好厉害的样子~
回复 支持 反对

使用道具 举报

xxw8888 发表于 2021-1-22 21:21:19

xxw8888 12#

2021-1-22 21:21:19

免费啊,感谢分享
回复 支持 反对

使用道具 举报

misfit 发表于 2021-1-22 22:42:01

misfit 13#

2021-1-22 22:42:01

我看了下豆瓣没有评分啊,imba评分确实也很高,看评论好像是个魔术show,下来看看,谢谢分享
回复 支持 反对

使用道具 举报

wxn 发表于 2021-1-23 02:02:36

wxn 14#

2021-1-23 02:02:36

‎讲故事和概念魔术师德里克·德尔高迪奥试图理解身份的虚幻本质,并回答一个看似简单的问题"我是谁?‎
回复 支持 反对

使用道具 举报

dyczw 发表于 2021-1-23 06:59:38

dyczw 15#

2021-1-23 06:59:38

感谢分享,辛苦了
回复 支持 反对

使用道具 举报

nk1013 发表于 2021-1-23 07:36:08

nk1013 16#

2021-1-23 07:36:08

剧情简介看不懂啊
回复 支持 反对

使用道具 举报

cb917918 发表于 2021-1-23 07:51:26

cb917918 17#

2021-1-23 07:51:26

谢谢分享好电影
回复 支持 反对

使用道具 举报

Elsapoo 发表于 2021-1-23 09:17:04

Elsapoo 18#

2021-1-23 09:17:04

这是说什么的纪录片??
回复 支持 反对

使用道具 举报

   发表回复

您需要登录后才可以回帖 登录 | 立即注册

返回列表 本版积分规则

  • 在线客服

  • 返回顶部