微博 微信

Hao4K影音

电影频道
电影封面:
片  名: 末日激战4k
电影分类: 动作 科幻 
国  家: 美国 
年  代: 2021年
分 辨 率: 4K(3840x2160)
电影格式: MKV|REMUX 
画质标准: SDR 
音质编码: Dolby Digital Plus Audio 其他AAC 
电影声道: 5.1声道 
帧数/FPS: 24.000 FPS
电影语言: 中文简体 中文繁体 英文原版 
资源大小: 16.04 GB
导  演: 米凯尔·哈弗斯特罗姆
豆瓣评分: 5.4 分
中文字幕: /thread-53563-1-1.html
剧情简介: 故事发生在未来,一名无人机飞行员哈普(戴姆森·伊德瑞斯饰)被派往危险的军事区域,他在那里发现自己服务的是一名研究机器人的长官里欧(安东尼·麦凯饰),这名长官的任务是在叛乱分子之前研发出打败对方的装置。
末日战地(港) / 导线以外 / 火线之外/末日激战4k Outside.the.Wire.2021.2160p.NF.WEBRip.x265.10bit.SDR.DDP5.1.Atmos.电影信息
  1. Video
  2. ID : 1
  3. Format : HEVC
  4. Format/Info : High Efficiency Video Coding
  5. Format profile : Main 10@L5.1@High
  6. Codec ID : V_MPEGH/ISO/HEVC
  7. Duration : 1 h 55 min
  8. Bit rate : 19.0 Mb/s
  9. Width : 3 840 pixels
  10. Height : 1 608 pixels
  11. Display aspect ratio : 2.40:1
  12. Frame rate mode : Constant
  13. Frame rate : 24.000 FPS
  14. Color space : YUV
  15. Chroma subsampling : 4:2:0
  16. Bit depth : 10 bits
  17. Bits/(Pixel*Frame) : 0.129
  18. Stream size : 15.4 GiB (96%)
  19. Writing library : x265 3.4+30-g6722fce1f:[Windows][GCC 10.2.0][64 bit] 10bit
  20. Encoding settings : cpuid=1111039 / frame-threads=4 / numa-pools=16 / wpp / no-pmode / no-pme / no-psnr / no-ssim / log-level=2 / input-csp=1 / input-res=3840x1608 / interlace=0 / total-frames=166864 / level-idc=51 / high-tier=1 / uhd-bd=0 / ref=5 / no-allow-non-conformance / repeat-headers / annexb / aud / hrd / info / hash=0 / no-temporal-layers / open-gop / min-keyint=24 / keyint=250 / gop-lookahead=0 / bframes=8 / b-adapt=2 / b-pyramid / bframe-bias=0 / rc-lookahead=40 / lookahead-slices=4 / scenecut=40 / hist-scenecut=0 / radl=0 / no-splice / no-intra-refresh / ctu=64 / min-cu-size=8 / no-rect / no-amp / max-tu-size=32 / tu-inter-depth=4 / tu-intra-depth=4 / limit-tu=4 / rdoq-level=2 / dynamic-rd=0.00 / no-ssim-rd / signhide / no-tskip / nr-intra=0 / nr-inter=0 / no-constrained-intra / strong-intra-smoothing / max-merge=4 / limit-refs=3 / limit-modes / me=3 / subme=5 / merange=57 / temporal-mvp / no-frame-dup / no-hme / weightp / weightb / no-analyze-src-pics / deblock=-3:-3 / no-sao / no-sao-non-deblock / rd=4 / selective-sao=0 / no-early-skip / rskip / no-fast-intra / no-tskip-fast / no-cu-lossless / b-intra / no-splitrd-skip / rdpenalty=0 / psy-rd=2.00 / psy-rdoq=2.00 / no-rd-refine / no-lossless / cbqpoffs=0 / crqpoffs=0 / rc=crf / crf=19.5 / qcomp=0.60 / qpstep=4 / stats-write=0 / stats-read=0 / vbv-maxrate=160000 / vbv-bufsize=160000 / vbv-init=0.9 / min-vbv-fullness=50.0 / max-vbv-fullness=80.0 / crf-max=0.0 / crf-min=0.0 / ipratio=1.30 / pbratio=1.20 / aq-mode=1 / aq-strength=0.80 / no-cutree / zone-count=0 / no-strict-cbr / qg-size=32 / no-rc-grain / qpmax=69 / qpmin=0 / no-const-vbv / sar=1 / overscan=0 / videoformat=5 / range=0 / colorprim=1 / transfer=1 / colormatrix=1 / chromaloc=0 / display-window=0 / cll=0,0 / min-luma=0 / max-luma=1023 / log2-max-poc-lsb=8 / vui-timing-info / vui-hrd-info / slices=1 / no-opt-qp-pps / no-opt-ref-list-length-pps / no-multi-pass-opt-rps / scenecut-bias=0.05 / hist-threshold=0.03 / no-opt-cu-delta-qp / no-aq-motion / no-hdr10 / no-hdr10-opt / no-dhdr10-opt / no-idr-recovery-sei / analysis-reuse-level=0 / analysis-save-reuse-level=0 / analysis-load-reuse-level=0 / scale-factor=0 / refine-intra=0 / refine-inter=0 / refine-mv=1 / refine-ctu-distortion=0 / no-limit-sao / ctu-info=0 / no-lowpass-dct / refine-analysis-type=0 / copy-pic=1 / max-ausize-factor=1.0 / no-dynamic-refine / no-single-sei / no-hevc-aq / no-svt / no-field / qp-adaptation-range=1.00 / no-scenecut-aware-qpconformance-window-offsets / right=0 / bottom=0 / decoder-max-rate=0 / no-vbv-live-multi-pass
  21. Default : Yes
  22. Forced : No
  23. Color range : Limited
  24. Color primaries : BT.709
  25. Transfer characteristics : BT.709
  26. Matrix coefficients : BT.709

  27. Audio
  28. ID : 2
  29. Format : E-AC-3 JOC
  30. Format/Info : Enhanced AC-3 with Joint Object Coding
  31. Commercial name : Dolby Digital Plus with Dolby Atmos
  32. Codec ID : A_EAC3
  33. Duration : 1 h 55 min
  34. Bit rate mode : Constant
  35. Bit rate : 768 kb/s
  36. Channel(s) : 6 channels
  37. Channel layout : L R C LFE Ls Rs
  38. Sampling rate : 48.0 kHz
  39. Frame rate : 31.250 FPS (1536 SPF)
  40. Compression mode : Lossy
  41. Stream size : 637 MiB (4%)
  42. Language : English
  43. Service kind : Complete Main
  44. Default : Yes
  45. Forced : No
  46. Complexity index : 16
  47. Number of dynamic objects : 15
  48. Bed channel count : 1 channel
  49. Bed channel configuration : LFE

  50. Text #1
  51. ID : 3
  52. Format : UTF-8
  53. Codec ID : S_TEXT/UTF8
  54. Codec ID/Info : UTF-8 Plain Text
  55. Duration : 33 min 4 s
  56. Bit rate : 0 b/s
  57. Count of elements : 14
  58. Stream size : 243 Bytes (0%)
  59. Title : Forced
  60. Language : English
  61. Default : Yes
  62. Forced : Yes

  63. Text #2
  64. ID : 4
  65. Format : UTF-8
  66. Codec ID : S_TEXT/UTF8
  67. Codec ID/Info : UTF-8 Plain Text
  68. Duration : 1 h 45 min
  69. Bit rate : 64 b/s
  70. Count of elements : 1644
  71. Stream size : 49.6 KiB (0%)
  72. Title : SDH
  73. Language : English
  74. Default : No
  75. Forced : No

  76. Text #3
  77. ID : 5
  78. Format : UTF-8
  79. Codec ID : S_TEXT/UTF8
  80. Codec ID/Info : UTF-8 Plain Text
  81. Duration : 1 h 53 min
  82. Bit rate : 81 b/s
  83. Count of elements : 1254
  84. Stream size : 68.1 KiB (0%)
  85. Language : Arabic
  86. Default : No
  87. Forced : No

  88. Text #4
  89. ID : 6
  90. Format : UTF-8
  91. Codec ID : S_TEXT/UTF8
  92. Codec ID/Info : UTF-8 Plain Text
  93. Duration : 1 h 53 min
  94. Bit rate : 43 b/s
  95. Count of elements : 1225
  96. Stream size : 36.4 KiB (0%)
  97. Language : Czech
  98. Default : No
  99. Forced : No

  100. Text #5
  101. ID : 7
  102. Format : UTF-8
  103. Codec ID : S_TEXT/UTF8
  104. Codec ID/Info : UTF-8 Plain Text
  105. Duration : 1 h 53 min
  106. Bit rate : 43 b/s
  107. Count of elements : 1159
  108. Stream size : 35.9 KiB (0%)
  109. Language : Danish
  110. Default : No
  111. Forced : No

  112. Text #6
  113. ID : 8
  114. Format : UTF-8
  115. Codec ID : S_TEXT/UTF8
  116. Codec ID/Info : UTF-8 Plain Text
  117. Duration : 1 h 53 min
  118. Bit rate : 45 b/s
  119. Count of elements : 1175
  120. Stream size : 37.9 KiB (0%)
  121. Language : German
  122. Default : No
  123. Forced : No

  124. Text #7
  125. ID : 9
  126. Format : UTF-8
  127. Codec ID : S_TEXT/UTF8
  128. Codec ID/Info : UTF-8 Plain Text
  129. Duration : 1 h 54 min
  130. Bit rate : 68 b/s
  131. Count of elements : 1737
  132. Stream size : 57.5 KiB (0%)
  133. Title : SDH
  134. Language : German
  135. Default : No
  136. Forced : No

  137. Text #8
  138. ID : 10
  139. Format : UTF-8
  140. Codec ID : S_TEXT/UTF8
  141. Codec ID/Info : UTF-8 Plain Text
  142. Duration : 1 h 53 min
  143. Bit rate : 76 b/s
  144. Count of elements : 1227
  145. Stream size : 63.5 KiB (0%)
  146. Language : Greek
  147. Default : No
  148. Forced : No

  149. Text #9
  150. ID : 11
  151. Format : UTF-8
  152. Codec ID : S_TEXT/UTF8
  153. Codec ID/Info : UTF-8 Plain Text
  154. Duration : 1 h 53 min
  155. Bit rate : 45 b/s
  156. Count of elements : 1244
  157. Stream size : 37.9 KiB (0%)
  158. Language : Spanish
  159. Default : No
  160. Forced : No

  161. Text #10
  162. ID : 12
  163. Format : UTF-8
  164. Codec ID : S_TEXT/UTF8
  165. Codec ID/Info : UTF-8 Plain Text
  166. Duration : 1 h 53 min
  167. Bit rate : 53 b/s
  168. Count of elements : 1313
  169. Stream size : 44.6 KiB (0%)
  170. Title : SDH
  171. Language : Spanish
  172. Default : No
  173. Forced : No

  174. Text #11
  175. ID : 13
  176. Format : UTF-8
  177. Codec ID : S_TEXT/UTF8
  178. Codec ID/Info : UTF-8 Plain Text
  179. Duration : 1 h 53 min
  180. Bit rate : 45 b/s
  181. Count of elements : 1195
  182. Stream size : 38.0 KiB (0%)
  183. Title : European
  184. Language : Spanish
  185. Default : No
  186. Forced : No

  187. Text #12
  188. ID : 14
  189. Format : UTF-8
  190. Codec ID : S_TEXT/UTF8
  191. Codec ID/Info : UTF-8 Plain Text
  192. Duration : 1 h 53 min
  193. Bit rate : 45 b/s
  194. Count of elements : 1122
  195. Stream size : 37.7 KiB (0%)
  196. Language : Finnish
  197. Default : No
  198. Forced : No

  199. Text #13
  200. ID : 15
  201. Format : UTF-8
  202. Codec ID : S_TEXT/UTF8
  203. Codec ID/Info : UTF-8 Plain Text
  204. Duration : 1 h 53 min
  205. Bit rate : 45 b/s
  206. Count of elements : 1253
  207. Stream size : 38.3 KiB (0%)
  208. Language : French
  209. Default : No
  210. Forced : No

  211. Text #14
  212. ID : 16
  213. Format : UTF-8
  214. Codec ID : S_TEXT/UTF8
  215. Codec ID/Info : UTF-8 Plain Text
  216. Duration : 1 h 53 min
  217. Bit rate : 60 b/s
  218. Count of elements : 1513
  219. Stream size : 50.2 KiB (0%)
  220. Title : SDH
  221. Language : French
  222. Default : No
  223. Forced : No

  224. Text #15
  225. ID : 17
  226. Format : UTF-8
  227. Codec ID : S_TEXT/UTF8
  228. Codec ID/Info : UTF-8 Plain Text
  229. Duration : 1 h 53 min
  230. Bit rate : 74 b/s
  231. Count of elements : 1219
  232. Stream size : 62.3 KiB (0%)
  233. Language : Hebrew
  234. Default : No
  235. Forced : No

  236. Text #16
  237. ID : 18
  238. Format : UTF-8
  239. Codec ID : S_TEXT/UTF8
  240. Codec ID/Info : UTF-8 Plain Text
  241. Duration : 1 h 53 min
  242. Bit rate : 40 b/s
  243. Count of elements : 1164
  244. Stream size : 33.4 KiB (0%)
  245. Language : Croatian
  246. Default : No
  247. Forced : No

  248. Text #17
  249. ID : 19
  250. Format : UTF-8
  251. Codec ID : S_TEXT/UTF8
  252. Codec ID/Info : UTF-8 Plain Text
  253. Duration : 1 h 53 min
  254. Bit rate : 46 b/s
  255. Count of elements : 1171
  256. Stream size : 38.8 KiB (0%)
  257. Language : Hungarian
  258. Default : No
  259. Forced : No

  260. Text #18
  261. ID : 20
  262. Format : UTF-8
  263. Codec ID : S_TEXT/UTF8
  264. Codec ID/Info : UTF-8 Plain Text
  265. Duration : 1 h 53 min
  266. Bit rate : 47 b/s
  267. Count of elements : 1255
  268. Stream size : 39.4 KiB (0%)
  269. Language : Indonesian
  270. Default : No
  271. Forced : No

  272. Text #19
  273. ID : 21
  274. Format : UTF-8
  275. Codec ID : S_TEXT/UTF8
  276. Codec ID/Info : UTF-8 Plain Text
  277. Duration : 1 h 53 min
  278. Bit rate : 43 b/s
  279. Count of elements : 1176
  280. Stream size : 36.4 KiB (0%)
  281. Language : Italian
  282. Default : No
  283. Forced : No

  284. Text #20
  285. ID : 22
  286. Format : UTF-8
  287. Codec ID : S_TEXT/UTF8
  288. Codec ID/Info : UTF-8 Plain Text
  289. Duration : 1 h 45 min
  290. Bit rate : 63 b/s
  291. Count of elements : 1621
  292. Stream size : 49.3 KiB (0%)
  293. Title : SDH
  294. Language : Italian
  295. Default : No
  296. Forced : No

  297. Text #21
  298. ID : 23
  299. Format : UTF-8
  300. Codec ID : S_TEXT/UTF8
  301. Codec ID/Info : UTF-8 Plain Text
  302. Duration : 1 h 53 min
  303. Bit rate : 37 b/s
  304. Count of elements : 1255
  305. Stream size : 31.3 KiB (0%)
  306. Language : Japanese
  307. Default : No
  308. Forced : No

  309. Text #22
  310. ID : 24
  311. Format : UTF-8
  312. Codec ID : S_TEXT/UTF8
  313. Codec ID/Info : UTF-8 Plain Text
  314. Duration : 1 h 53 min
  315. Bit rate : 55 b/s
  316. Count of elements : 1290
  317. Stream size : 46.1 KiB (0%)
  318. Language : Korean
  319. Default : No
  320. Forced : No

  321. Text #23
  322. ID : 25
  323. Format : UTF-8
  324. Codec ID : S_TEXT/UTF8
  325. Codec ID/Info : UTF-8 Plain Text
  326. Duration : 1 h 53 min
  327. Bit rate : 44 b/s
  328. Count of elements : 1184
  329. Stream size : 37.4 KiB (0%)
  330. Language : Malay
  331. Default : No
  332. Forced : No

  333. Text #24
  334. ID : 26
  335. Format : UTF-8
  336. Codec ID : S_TEXT/UTF8
  337. Codec ID/Info : UTF-8 Plain Text
  338. Duration : 1 h 53 min
  339. Bit rate : 42 b/s
  340. Count of elements : 1237
  341. Stream size : 35.5 KiB (0%)
  342. Language : Norwegian Bokmal
  343. Default : No
  344. Forced : No

  345. Text #25
  346. ID : 27
  347. Format : UTF-8
  348. Codec ID : S_TEXT/UTF8
  349. Codec ID/Info : UTF-8 Plain Text
  350. Duration : 1 h 53 min
  351. Bit rate : 40 b/s
  352. Count of elements : 1071
  353. Stream size : 34.0 KiB (0%)
  354. Language : Dutch
  355. Default : No
  356. Forced : No

  357. Text #26
  358. ID : 28
  359. Format : UTF-8
  360. Codec ID : S_TEXT/UTF8
  361. Codec ID/Info : UTF-8 Plain Text
  362. Duration : 1 h 53 min
  363. Bit rate : 39 b/s
  364. Count of elements : 1227
  365. Stream size : 33.3 KiB (0%)
  366. Language : Polish
  367. Default : No
  368. Forced : No

  369. Text #27
  370. ID : 29
  371. Format : UTF-8
  372. Codec ID : S_TEXT/UTF8
  373. Codec ID/Info : UTF-8 Plain Text
  374. Duration : 1 h 53 min
  375. Bit rate : 44 b/s
  376. Count of elements : 1201
  377. Stream size : 37.0 KiB (0%)
  378. Language : Portuguese
  379. Default : No
  380. Forced : No

  381. Text #28
  382. ID : 30
  383. Format : UTF-8
  384. Codec ID : S_TEXT/UTF8
  385. Codec ID/Info : UTF-8 Plain Text
  386. Duration : 1 h 53 min
  387. Bit rate : 45 b/s
  388. Count of elements : 1251
  389. Stream size : 37.6 KiB (0%)
  390. Title : Brazilian
  391. Language : Portuguese
  392. Default : No
  393. Forced : No

  394. Text #29
  395. ID : 31
  396. Format : UTF-8
  397. Codec ID : S_TEXT/UTF8
  398. Codec ID/Info : UTF-8 Plain Text
  399. Duration : 1 h 47 min
  400. Bit rate : 67 b/s
  401. Count of elements : 1640
  402. Stream size : 53.2 KiB (0%)
  403. Title : Brazilian (SDH)
  404. Language : Portuguese
  405. Default : No
  406. Forced : No

  407. Text #30
  408. ID : 32
  409. Format : UTF-8
  410. Codec ID : S_TEXT/UTF8
  411. Codec ID/Info : UTF-8 Plain Text
  412. Duration : 1 h 53 min
  413. Bit rate : 51 b/s
  414. Count of elements : 1193
  415. Stream size : 43.1 KiB (0%)
  416. Language : Romanian
  417. Default : No
  418. Forced : No

  419. Text #31
  420. ID : 33
  421. Format : UTF-8
  422. Codec ID : S_TEXT/UTF8
  423. Codec ID/Info : UTF-8 Plain Text
  424. Duration : 1 h 53 min
  425. Bit rate : 73 b/s
  426. Count of elements : 1218
  427. Stream size : 61.2 KiB (0%)
  428. Language : Russian
  429. Default : No
  430. Forced : No

  431. Text #32
  432. ID : 34
  433. Format : UTF-8
  434. Codec ID : S_TEXT/UTF8
  435. Codec ID/Info : UTF-8 Plain Text
  436. Duration : 1 h 53 min
  437. Bit rate : 43 b/s
  438. Count of elements : 1135
  439. Stream size : 36.3 KiB (0%)
  440. Language : Swedish
  441. Default : No
  442. Forced : No

  443. Text #33
  444. ID : 35
  445. Format : UTF-8
  446. Codec ID : S_TEXT/UTF8
  447. Codec ID/Info : UTF-8 Plain Text
  448. Duration : 1 h 53 min
  449. Bit rate : 125 b/s
  450. Count of elements : 1265
  451. Stream size : 105 KiB (0%)
  452. Language : Thai
  453. Default : No
  454. Forced : No

  455. Text #34
  456. ID : 36
  457. Format : UTF-8
  458. Codec ID : S_TEXT/UTF8
  459. Codec ID/Info : UTF-8 Plain Text
  460. Duration : 1 h 53 min
  461. Bit rate : 47 b/s
  462. Count of elements : 1169
  463. Stream size : 39.4 KiB (0%)
  464. Language : Turkish
  465. Default : No
  466. Forced : No

  467. Text #35
  468. ID : 37
  469. Format : UTF-8
  470. Codec ID : S_TEXT/UTF8
  471. Codec ID/Info : UTF-8 Plain Text
  472. Duration : 1 h 53 min
  473. Bit rate : 73 b/s
  474. Count of elements : 1262
  475. Stream size : 61.6 KiB (0%)
  476. Language : Ukrainian
  477. Default : No
  478. Forced : No

  479. Text #36
  480. ID : 38
  481. Format : UTF-8
  482. Codec ID : S_TEXT/UTF8
  483. Codec ID/Info : UTF-8 Plain Text
  484. Duration : 1 h 53 min
  485. Bit rate : 65 b/s
  486. Count of elements : 1259
  487. Stream size : 54.7 KiB (0%)
  488. Language : Vietnamese
  489. Default : No
  490. Forced : No

  491. Text #37
  492. ID : 39
  493. Format : UTF-8
  494. Codec ID : S_TEXT/UTF8
  495. Codec ID/Info : UTF-8 Plain Text
  496. Duration : 1 h 53 min
  497. Bit rate : 50 b/s
  498. Count of elements : 1264
  499. Stream size : 41.7 KiB (0%)
  500. Title : Simplified
  501. Language : Chinese
  502. Default : No
  503. Forced : No

  504. Text #38
  505. ID : 40
  506. Format : UTF-8
  507. Codec ID : S_TEXT/UTF8
  508. Codec ID/Info : UTF-8 Plain Text
  509. Duration : 1 h 53 min
  510. Bit rate : 48 b/s
  511. Count of elements : 1263
  512. Stream size : 40.3 KiB (0%)
  513. Title : Traditional
  514. Language : Chinese
  515. Default : No
  516. Forced : No
复制代码

末日战地(港) / 导线以外 / 火线之外/末日激战4k Outside.the.Wire.2021.2160p.NF.WEBRip.x265.10bit.SDR.DDP5.1.Atmos.电影下载

末日激战4k Outside.the.Wire.2021.2160p.NF.WEBRip.x265.10bit.SDR.DDP5.1.Atmos-简繁中字【4K SDR 16.04 GB】
[Hao4k]末日激战4k Outside.the.Wire.2021.2160p.NF.WEBRip.x265.10bit.SDR.DDP5.1.At.torrent (80.76 KB, 售价: 2 K币)
回复

使用道具 举报

全部回复185

bbgrnnji 发表于 2021-1-23 09:18:04

bbgrnnji 沙发

2021-1-23 09:18:04

已经说过了,6分以下的片一般就不会再浪费时间了,但还是要谢谢楼主。
回复 支持 1 反对 3

使用道具 举报

zhchjun 发表于 2021-1-23 09:34:02

zhchjun 板凳

2021-1-23 09:34:02

新鲜出炉呀
回复 支持 反对

使用道具 举报

丿海阔天空 发表于 2021-1-23 09:47:07 Hao4K手机版

丿海阔天空 地板

2021-1-23 09:47:07

评分真的有点低……
回复 支持 反对

使用道具 举报

mryang6688 发表于 2021-1-23 09:55:42

mryang6688 5#

2021-1-23 09:55:42

感谢楼主,谢谢分享
回复 支持 反对

使用道具 举报

简简单单 发表于 2021-1-23 10:11:00

简简单单 6#

2021-1-23 10:11:00

新片发布!
感谢感谢!!!!!!!
回复 支持 反对

使用道具 举报

andychen 发表于 2021-1-23 10:12:18

andychen 7#

2021-1-23 10:12:18

感谢楼主谢谢分享
回复 支持 反对

使用道具 举报

光和影清晰记忆 发表于 2021-1-23 10:19:02

光和影清晰记忆 8#

2021-1-23 10:19:02

相当完美的片子,怎么下载呢
回复 支持 反对

使用道具 举报

zj6114 发表于 2021-1-23 10:27:13

zj6114 9#

2021-1-23 10:27:13

谢谢楼主分享2021年新片。
回复 支持 反对

使用道具 举报

shanputaoye 发表于 2021-1-23 10:37:48

shanputaoye 12#

2021-1-23 10:37:48

新手上路,能下载吗?
回复 支持 反对

使用道具 举报

hk1560777 发表于 2021-1-23 10:54:14

hk1560777 14#

2021-1-23 10:54:14

除了结尾有些拖沓外,还是可以的
回复 支持 反对

使用道具 举报

mayong43188 发表于 2021-1-23 11:09:01

mayong43188 15#

2021-1-23 11:09:01

真的要感谢楼主
回复 支持 反对

使用道具 举报

leish 发表于 2021-1-23 11:09:04

leish 16#

2021-1-23 11:09:04

科幻动作片还是喜欢的,虽然评分有点低
回复 支持 反对

使用道具 举报

blackhead 发表于 2021-1-23 11:18:00

blackhead 17#

2021-1-23 11:18:00

謝謝樓主分享
回复 支持 反对

使用道具 举报

   发表回复

您需要登录后才可以回帖 登录 | 立即注册

返回列表 本版积分规则

  • 在线客服

  • 返回顶部