微博 微信

Hao4K影音

[美剧] 迷失爱丽丝4k Losing.Alice.S01E01.HDR.2160p.美剧下载

2021-2-1 14:34:24 29642 4 |只看大图 回帖奖励 |倒序浏览 |阅读模式

大红色 楼主

2021-1-23 11:05:39

电视剧频道
电视剧封面:
电视剧名: 迷失爱丽丝4k
年  代: 2020  
国  家: 其他
类  别: 惊悚 剧情 爱情 
语  言: 英语
字  幕: 英文原版
上映日期: 2021-01-22
文件格式: mkv    
视频效果: 4K(3840x2160)    
资源大小: 8.52 GB
片  长: 47 分钟
导  演: Sigal Avin
剧情简介: 通过闪回和闪前,讲述了青春不再的电影导演Alice (Ayelet Zurer),对年轻编剧Sophie (Lihi Kornowski)日益痴迷。后者黑暗而令人不安的剧本,似乎并不只是虚构故事那么简单。
Leabed et Alice/迷失爱丽丝4k Losing.Alice.S01E01.HDR.2160p.WEB.h265美剧信息
  1. Video
  2. ID : 1
  3. Format : HEVC
  4. Format/Info : High Efficiency Video Coding
  5. Format profile : Main 10@L5@High
  6. HDR format : SMPTE ST 2086, HDR10 compatible
  7. Codec ID : V_MPEGH/ISO/HEVC
  8. Duration : 48 min 53 s
  9. Bit rate : 24.2 Mb/s
  10. Width : 3 840 pixels
  11. Height : 1 606 pixels
  12. Display aspect ratio : 2.40:1
  13. Frame rate mode : Constant
  14. Frame rate : 23.976 (24000/1001) FPS
  15. Color space : YUV
  16. Chroma subsampling : 4:2:0 (Type 2)
  17. Bit depth : 10 bits
  18. Bits/(Pixel*Frame) : 0.164
  19. Stream size : 8.26 GiB (97%)
  20. Language : Hebrew
  21. Default : Yes
  22. Forced : No
  23. Color range : Limited
  24. Color primaries : BT.2020
  25. Transfer characteristics : PQ
  26. Matrix coefficients : BT.2020 non-constant
  27. Mastering display color primaries : Display P3
  28. Mastering display luminance : min: 0.0050 cd/m2, max: 1000 cd/m2
  29. Maximum Content Light Level : 764 cd/m2
  30. Maximum Frame-Average Light Level : 127 cd/m2

  31. Audio
  32. ID : 2
  33. Format : E-AC-3 JOC
  34. Format/Info : Enhanced AC-3 with Joint Object Coding
  35. Commercial name : Dolby Digital Plus with Dolby Atmos
  36. Codec ID : A_EAC3
  37. Duration : 48 min 53 s
  38. Bit rate mode : Constant
  39. Bit rate : 768 kb/s
  40. Channel(s) : 6 channels
  41. Channel layout : L R C LFE Ls Rs
  42. Sampling rate : 48.0 kHz
  43. Frame rate : 31.250 FPS (1536 SPF)
  44. Compression mode : Lossy
  45. Stream size : 269 MiB (3%)
  46. Language : Hebrew
  47. Service kind : Complete Main
  48. Default : Yes
  49. Forced : No
  50. Complexity index : 16
  51. Number of dynamic objects : 15
  52. Bed channel count : 1 channel
  53. Bed channel configuration : LFE

  54. Text #1
  55. ID : 3
  56. Format : UTF-8
  57. Codec ID : S_TEXT/UTF8
  58. Codec ID/Info : UTF-8 Plain Text
  59. Duration : 46 min 56 s
  60. Bit rate : 46 b/s
  61. Count of elements : 532
  62. Stream size : 15.9 KiB (0%)
  63. Title : English (forced)
  64. Language : English
  65. Default : Yes
  66. Forced : Yes

  67. Text #2
  68. ID : 4
  69. Format : UTF-8
  70. Codec ID : S_TEXT/UTF8
  71. Codec ID/Info : UTF-8 Plain Text
  72. Duration : 48 min 9 s
  73. Bit rate : 56 b/s
  74. Count of elements : 679
  75. Stream size : 20.0 KiB (0%)
  76. Title : English (SDH)
  77. Language : English
  78. Default : No
  79. Forced : No

  80. Text #3
  81. ID : 5
  82. Format : UTF-8
  83. Codec ID : S_TEXT/UTF8
  84. Codec ID/Info : UTF-8 Plain Text
  85. Duration : 48 min 29 s
  86. Bit rate : 56 b/s
  87. Count of elements : 518
  88. Stream size : 20.0 KiB (0%)
  89. Title : العربية
  90. Language : Arabic
  91. Default : No
  92. Forced : No

  93. Text #4
  94. ID : 6
  95. Format : UTF-8
  96. Codec ID : S_TEXT/UTF8
  97. Codec ID/Info : UTF-8 Plain Text
  98. Duration : 48 min 29 s
  99. Bit rate : 60 b/s
  100. Count of elements : 489
  101. Stream size : 21.3 KiB (0%)
  102. Title : български
  103. Language : Bulgarian
  104. Default : No
  105. Forced : No

  106. Text #5
  107. ID : 7
  108. Format : UTF-8
  109. Codec ID : S_TEXT/UTF8
  110. Codec ID/Info : UTF-8 Plain Text
  111. Duration : 48 min 29 s
  112. Bit rate : 39 b/s
  113. Count of elements : 506
  114. Stream size : 13.9 KiB (0%)
  115. Title : Čeština
  116. Language : Czech
  117. Default : No
  118. Forced : No

  119. Text #6
  120. ID : 8
  121. Format : UTF-8
  122. Codec ID : S_TEXT/UTF8
  123. Codec ID/Info : UTF-8 Plain Text
  124. Duration : 48 min 29 s
  125. Bit rate : 37 b/s
  126. Count of elements : 511
  127. Stream size : 13.2 KiB (0%)
  128. Title : dansk
  129. Language : Danish
  130. Default : No
  131. Forced : No

  132. Text #7
  133. ID : 9
  134. Format : UTF-8
  135. Codec ID : S_TEXT/UTF8
  136. Codec ID/Info : UTF-8 Plain Text
  137. Duration : 48 min 31 s
  138. Bit rate : 40 b/s
  139. Count of elements : 476
  140. Stream size : 14.4 KiB (0%)
  141. Title : Deutsch
  142. Language : German
  143. Default : No
  144. Forced : No

  145. Text #8
  146. ID : 10
  147. Format : UTF-8
  148. Codec ID : S_TEXT/UTF8
  149. Codec ID/Info : UTF-8 Plain Text
  150. Duration : 48 min 29 s
  151. Bit rate : 69 b/s
  152. Count of elements : 483
  153. Stream size : 24.6 KiB (0%)
  154. Title : Ελληνικά
  155. Language : Greek
  156. Default : No
  157. Forced : No

  158. Text #9
  159. ID : 11
  160. Format : UTF-8
  161. Codec ID : S_TEXT/UTF8
  162. Codec ID/Info : UTF-8 Plain Text
  163. Duration : 48 min 29 s
  164. Bit rate : 39 b/s
  165. Count of elements : 500
  166. Stream size : 14.2 KiB (0%)
  167. Title : Español (Latinoamérica)
  168. Language : Spanish
  169. Default : No
  170. Forced : No

  171. Text #10
  172. ID : 12
  173. Format : UTF-8
  174. Codec ID : S_TEXT/UTF8
  175. Codec ID/Info : UTF-8 Plain Text
  176. Duration : 48 min 36 s
  177. Bit rate : 45 b/s
  178. Count of elements : 511
  179. Stream size : 16.2 KiB (0%)
  180. Title : Español (España)
  181. Language : Spanish
  182. Default : No
  183. Forced : No

  184. Text #11
  185. ID : 13
  186. Format : UTF-8
  187. Codec ID : S_TEXT/UTF8
  188. Codec ID/Info : UTF-8 Plain Text
  189. Duration : 48 min 29 s
  190. Bit rate : 39 b/s
  191. Count of elements : 464
  192. Stream size : 14.1 KiB (0%)
  193. Title : eesti
  194. Language : Estonian
  195. Default : No
  196. Forced : No

  197. Text #12
  198. ID : 14
  199. Format : UTF-8
  200. Codec ID : S_TEXT/UTF8
  201. Codec ID/Info : UTF-8 Plain Text
  202. Duration : 48 min 29 s
  203. Bit rate : 39 b/s
  204. Count of elements : 517
  205. Stream size : 14.0 KiB (0%)
  206. Title : Suomi
  207. Language : Finnish
  208. Default : No
  209. Forced : No

  210. Text #13
  211. ID : 15
  212. Format : UTF-8
  213. Codec ID : S_TEXT/UTF8
  214. Codec ID/Info : UTF-8 Plain Text
  215. Duration : 48 min 24 s
  216. Bit rate : 39 b/s
  217. Count of elements : 475
  218. Stream size : 14.0 KiB (0%)
  219. Title : Français (Canada)
  220. Language : French
  221. Default : No
  222. Forced : No

  223. Text #14
  224. ID : 16
  225. Format : UTF-8
  226. Codec ID : S_TEXT/UTF8
  227. Codec ID/Info : UTF-8 Plain Text
  228. Duration : 48 min 24 s
  229. Bit rate : 39 b/s
  230. Count of elements : 475
  231. Stream size : 14.0 KiB (0%)
  232. Title : Français (France)
  233. Language : French
  234. Default : No
  235. Forced : No

  236. Text #15
  237. ID : 17
  238. Format : UTF-8
  239. Codec ID : S_TEXT/UTF8
  240. Codec ID/Info : UTF-8 Plain Text
  241. Duration : 44 min 47 s
  242. Bit rate : 63 b/s
  243. Count of elements : 495
  244. Stream size : 20.8 KiB (0%)
  245. Title : עברית
  246. Language : Hebrew
  247. Default : No
  248. Forced : No

  249. Text #16
  250. ID : 18
  251. Format : UTF-8
  252. Codec ID : S_TEXT/UTF8
  253. Codec ID/Info : UTF-8 Plain Text
  254. Duration : 48 min 29 s
  255. Bit rate : 111 b/s
  256. Count of elements : 518
  257. Stream size : 39.5 KiB (0%)
  258. Title : हिन्दी
  259. Language : Hindi
  260. Default : No
  261. Forced : No

  262. Text #17
  263. ID : 19
  264. Format : UTF-8
  265. Codec ID : S_TEXT/UTF8
  266. Codec ID/Info : UTF-8 Plain Text
  267. Duration : 48 min 29 s
  268. Bit rate : 35 b/s
  269. Count of elements : 517
  270. Stream size : 12.7 KiB (0%)
  271. Title : magyar
  272. Language : Hungarian
  273. Default : No
  274. Forced : No

  275. Text #18
  276. ID : 20
  277. Format : UTF-8
  278. Codec ID : S_TEXT/UTF8
  279. Codec ID/Info : UTF-8 Plain Text
  280. Duration : 48 min 29 s
  281. Bit rate : 40 b/s
  282. Count of elements : 515
  283. Stream size : 14.5 KiB (0%)
  284. Title : Bahasa Indonesia
  285. Language : Indonesian
  286. Default : No
  287. Forced : No

  288. Text #19
  289. ID : 21
  290. Format : UTF-8
  291. Codec ID : S_TEXT/UTF8
  292. Codec ID/Info : UTF-8 Plain Text
  293. Duration : 48 min 31 s
  294. Bit rate : 40 b/s
  295. Count of elements : 497
  296. Stream size : 14.3 KiB (0%)
  297. Title : Italiano
  298. Language : Italian
  299. Default : No
  300. Forced : No

  301. Text #20
  302. ID : 22
  303. Format : UTF-8
  304. Codec ID : S_TEXT/UTF8
  305. Codec ID/Info : UTF-8 Plain Text
  306. Duration : 48 min 37 s
  307. Bit rate : 33 b/s
  308. Count of elements : 433
  309. Stream size : 11.9 KiB (0%)
  310. Title : 日本語
  311. Language : Japanese
  312. Default : No
  313. Forced : No
复制代码

Leabed et Alice/迷失爱丽丝4k Losing.Alice.S01E01.HDR.2160p.WEB.h265美剧下载

迷失爱丽丝4k Losing.Alice.S01E01.HDR.2160p.WEB.h265【8.52 GB】
[Hao4k]迷失爱丽丝4k Losing.Alice.S01E01.HDR.2160p.WEB.h265-KOGi[rartv.torrent (43.13 KB)
回复

使用道具 举报

全部回复4

八神 发表于 2021-1-23 12:08:48

八神 沙发

2021-1-23 12:08:48

谢谢分享,可惜只有一集,有没有第一季合集
回复 支持 反对

使用道具 举报

Lyria 发表于 2021-1-23 13:40:28

Lyria 板凳

2021-1-23 13:40:28

受爱丽丝漫游奇境影响,看到爱丽丝就以为是奇幻片,,这个应该是悬疑心理剧?
回复 支持 反对

使用道具 举报

Lyria 发表于 2021-1-23 13:41:02

Lyria 地板

2021-1-23 13:41:02

八神 发表于 2021-1-23 12:08
谢谢分享,可惜只有一集,有没有第一季合集

1月22日刚刚开播呢,不会这么快就有第一季全集的,安心等待~
回复 支持 反对

使用道具 举报

jeckli 发表于 2021-2-1 14:34:24

jeckli 5#

2021-2-1 14:34:24

感谢 正在找这个  感谢 正在找这个
回复 支持 反对

使用道具 举报

   发表回复

您需要登录后才可以回帖 登录 | 立即注册

返回列表 本版积分规则

:
白银玩家
:
未填写

主题

帖子

积分1006

图文推荐

  • 99新3T硬盘带资源出售

    可烤满4K、1080P,豆瓣高分影片。 399元烤满

  • 【已售】出售115永久皇冠VIP

    115网盘: 超大空间、高速传输、200G大文

  • 出开博尔Q20PLUS+戴尔UP2718q hdr1000显示

    设备升级了,转让纯一手开博尔Q20PLUS 4K硬盘播放

  • 出99新的Xbox one X港服,只买了两个月寻有

    只买了两个月的Xbox one X港服,寻有缘人,拿回来

  • 杰士RP8000F落地音箱一对,全新拆箱,刚到

    杰士RP8000F(280F升级款)落地音箱一对,全新到

  • 在线客服

  • 返回顶部