微博 微信

Hao4K影音

电影频道
电影封面:
片  名: Ferro 4K
电影分类: 纪录片 
国  家: 意大利 
年  代: 2020年
分 辨 率: 4K(3840x2160)
电影格式: MKV|REMUX 
画质标准: HDR 
音质编码: Dolby Digital Plus Audio 
电影声道: 5.1声道 
帧数/FPS: 24.000 FPS
电影语言: 英文原版 
资源大小: 8.26 GB
导  演: Beppe Tufarulo
豆瓣评分: 6.4 分
中文字幕: -
剧情简介: Ferro is the original and open hearted story of one of the most famous Italian singers in the world.
Ferro.2020.ITALIAN.2160p.AMZN.WEB-DL.x265.10bit.HDR10plus.DDP5.1.电影信息
  1. Video
  2. ID : 1
  3. Format : HEVC
  4. Format/Info : High Efficiency Video Coding
  5. Format profile : Main 10@L5@Main
  6. HDR format : SMPTE ST 2094 App 4, Version 1, HDR10+ Profile B compatible
  7. Codec ID : V_MPEGH/ISO/HEVC
  8. Duration : 1 h 16 min
  9. Bit rate : 14.8 Mb/s
  10. Width : 3 840 pixels
  11. Height : 2 160 pixels
  12. Display aspect ratio : 16:9
  13. Frame rate mode : Constant
  14. Frame rate : 24.000 FPS
  15. Color space : YUV
  16. Chroma subsampling : 4:2:0
  17. Bit depth : 10 bits
  18. Bits/(Pixel*Frame) : 0.074
  19. Stream size : 7.91 GiB (96%)
  20. Default : Yes
  21. Forced : No
  22. Color range : Limited
  23. Color primaries : BT.2020
  24. Transfer characteristics : PQ
  25. Matrix coefficients : BT.2020 non-constant
  26. Mastering display color primaries : Display P3
  27. Mastering display luminance : min: 0.0001 cd/m2, max: 1000 cd/m2
  28. Maximum Content Light Level : 901 cd/m2
  29. Maximum Frame-Average Light Level : 326 cd/m2

  30. Audio
  31. ID : 2
  32. Format : E-AC-3
  33. Format/Info : Enhanced AC-3
  34. Commercial name : Dolby Digital Plus
  35. Codec ID : A_EAC3
  36. Duration : 1 h 16 min
  37. Bit rate mode : Constant
  38. Bit rate : 640 kb/s
  39. Channel(s) : 6 channels
  40. Channel layout : L R C LFE Ls Rs
  41. Sampling rate : 48.0 kHz
  42. Frame rate : 31.250 FPS (1536 SPF)
  43. Compression mode : Lossy
  44. Stream size : 352 MiB (4%)
  45. Title : DDP 5.1
  46. Language : Italian
  47. Service kind : Complete Main
  48. Default : Yes
  49. Forced : No

  50. Text #1
  51. ID : 3
  52. Format : UTF-8
  53. Codec ID : S_TEXT/UTF8
  54. Codec ID/Info : UTF-8 Plain Text
  55. Duration : 1 h 14 min
  56. Bit rate : 61 b/s
  57. Count of elements : 805
  58. Stream size : 33.4 KiB (0%)
  59. Language : English
  60. Default : Yes
  61. Forced : No

  62. Text #2
  63. ID : 4
  64. Format : UTF-8
  65. Codec ID : S_TEXT/UTF8
  66. Codec ID/Info : UTF-8 Plain Text
  67. Duration : 1 h 16 min
  68. Bit rate : 69 b/s
  69. Count of elements : 869
  70. Stream size : 38.8 KiB (0%)
  71. Language : German
  72. Default : No
  73. Forced : No

  74. Text #3
  75. ID : 5
  76. Format : UTF-8
  77. Codec ID : S_TEXT/UTF8
  78. Codec ID/Info : UTF-8 Plain Text
  79. Duration : 1 h 16 min
  80. Bit rate : 77 b/s
  81. Count of elements : 1101
  82. Stream size : 43.5 KiB (0%)
  83. Language : Spanish
  84. Default : No
  85. Forced : No

  86. Text #4
  87. ID : 6
  88. Format : UTF-8
  89. Codec ID : S_TEXT/UTF8
  90. Codec ID/Info : UTF-8 Plain Text
  91. Duration : 1 h 16 min
  92. Bit rate : 82 b/s
  93. Count of elements : 1094
  94. Stream size : 45.8 KiB (0%)
  95. Language : French
  96. Default : No
  97. Forced : No

  98. Text #5
  99. ID : 7
  100. Format : UTF-8
  101. Codec ID : S_TEXT/UTF8
  102. Codec ID/Info : UTF-8 Plain Text
  103. Duration : 1 h 15 min
  104. Bit rate : 89 b/s
  105. Count of elements : 1216
  106. Stream size : 49.6 KiB (0%)
  107. Language : Italian
  108. Default : No
  109. Forced : No

  110. Menu
  111. 00:00:00.000 : en:Amazon Original
  112. 00:00:05.000 : en:Scene 2
  113. 00:01:54.000 : en:Scene 3
  114. 00:02:27.000 : en:Title Sequence
  115. 00:02:50.000 : en:Scene 5
  116. 00:05:47.000 : en:Scene 6
  117. 00:06:13.000 : en:Scene 7
  118. 00:07:54.000 : en:Scene 8
  119. 00:09:07.000 : en:Scene 9
  120. 00:10:40.000 : en:Scene 10
  121. 00:11:29.000 : en:Scene 11
  122. 00:12:45.000 : en:Scene 12
  123. 00:16:17.000 : en:Scene 13
  124. 00:18:51.000 : en:Scene 14
  125. 00:23:40.000 : en:Scene 15
  126. 00:24:50.000 : en:Scene 16
  127. 00:28:43.000 : en:Scene 17
  128. 00:30:21.000 : en:Scene 18
  129. 00:32:13.000 : en:Scene 19
  130. 00:34:12.000 : en:Scene 20
  131. 00:36:15.000 : en:Scene 21
  132. 00:43:27.000 : en:Scene 22
  133. 00:44:53.000 : en:Scene 23
  134. 00:48:58.000 : en:Scene 24
  135. 00:50:07.000 : en:Scene 25
  136. 00:53:09.000 : en:Scene 26
  137. 00:56:29.000 : en:Scene 27
  138. 00:58:27.000 : en:Scene 28
  139. 01:00:28.000 : en:Scene 29
  140. 01:03:55.000 : en:Scene 30
  141. 01:13:16.000 : en:Scene 31
  142. 01:15:31.000 : en:End Credits
复制代码
Ferro 4K.2020.ITALIAN.2160p.AMZN.WEB-DL.x265.10bit.HDR10plus.DDP5.1.电影下载

Ferro 4K.2020.ITALIAN.2160p.AMZN.WEB-DL.x265.10bit.HDR10plus.DDP5.1【8.26 GB】
[Hao4k]Ferro.2020.ITALIAN.2160p.AMZN.WEB-DL.x265.10bit.HDR10plus.DDP5.1-SWTYBLZ.torrent (41.87 KB)
回复

使用道具 举报

全部回复32

bbgrnnji 发表于 2021-1-24 09:08:34

bbgrnnji 沙发

2021-1-24 09:08:34

最近难得的超过6分的4K还是纪录片,哈哈
回复 支持 反对

使用道具 举报

chuchan1 发表于 2021-1-24 09:24:35

chuchan1 板凳

2021-1-24 09:24:35

最近难得的超过6分的4K还是纪录片
回复 支持 0 反对 1

使用道具 举报

dida_goal 发表于 2021-1-24 09:44:16

dida_goal 地板

2021-1-24 09:44:16

歌唱家传记?让了
回复 支持 反对

使用道具 举报

dk30129 发表于 2021-1-24 09:59:33

dk30129 5#

2021-1-24 09:59:33

谢谢分享,顶你!!!
回复 支持 反对

使用道具 举报

highrpmclub 发表于 2021-1-24 10:17:15

highrpmclub 6#

2021-1-24 10:17:15

看封面还以为是个恐怖惊栗电影,原来是个纪录片
回复 支持 反对

使用道具 举报

小拇指 发表于 2021-1-24 10:59:07

小拇指 7#

2021-1-24 10:59:07

最近难得的超过6分的4K还是纪录片,哈哈
回复 支持 反对

使用道具 举报

罗洋 发表于 2021-1-24 11:28:50

罗洋 9#

2021-1-24 11:28:50

有看过的吗,来说说咋样。
回复 支持 反对

使用道具 举报

ywf6168 发表于 2021-1-24 12:02:40

ywf6168 10#

2021-1-24 12:02:40

谢谢分享,辛苦了
回复 支持 反对

使用道具 举报

r31325 发表于 2021-1-24 15:31:07

r31325 11#

2021-1-24 15:31:07

比较陌生啊
回复 支持 反对

使用道具 举报

niepan1985 发表于 2021-1-24 16:03:30

niepan1985 12#

2021-1-24 16:03:30


最近难得的超过6分的4K还是纪录片,heiheiihei
回复 支持 反对

使用道具 举报

xieyuxiao 发表于 2021-1-24 19:52:17

xieyuxiao 14#

2021-1-24 19:52:17

最近难得的超过6分的4K还是纪录片
回复 支持 反对

使用道具 举报

xxw8888 发表于 2021-1-25 12:08:46

xxw8888 17#

2021-1-25 12:08:46

感谢楼主的分享
回复 支持 反对

使用道具 举报

踏雪寻龙 发表于 2021-1-25 16:36:04

踏雪寻龙 18#

2021-1-25 16:36:04

这是个什么样的片子谁知道?
回复 支持 反对

使用道具 举报

   发表回复

您需要登录后才可以回帖 登录 | 立即注册

返回列表 本版积分规则

  • 在线客服

  • 返回顶部