微博 微信

Hao4K影音

电影频道
电影封面:
片  名: 迷失Z城4k
电影分类: 冒险 剧情 传记 
国  家: 美国 
年  代: 2016年
分 辨 率: 4K(3840x2160)
电影格式: MKV|REMUX 
画质标准: SDR 
音质编码: DTS-HD Master Audio 
电影声道: 5.1声道 
帧数/FPS: 23.976 FPS
电影语言: 英文原版 
资源大小: 13.83 GB
导  演: 詹姆斯·格雷
豆瓣评分: 7.0 分
中文字幕: /thread-53603-1-1.html
剧情简介:  英国探险家珀西·福斯特(查理·汉纳姆 Charlie Hunnam 饰)深入神秘的南美洲亚马逊丛林探险,竟发现未知的文明生活迹象,他回到英国公开这个意义深远的重大发现,却被当成笑话嘲弄,没有人愿意相信他的话。在爱妻尼娜(西耶娜·米勒 Sienna Miller 饰)无怨无悔的支持下,福斯特决心带领儿子杰克(汤姆·霍兰德 Tom Holland 饰)重返亚马逊丛林,寻找古文明存在的证据,一行人却离奇消失,从此再无任何音讯,成为史上最神秘又悬疑的失踪事件。
失落之城(台)/迷失Z城4k The.Lost.City.of.Z.2016.2160p.AMZN.WEB-DL.x265.8bit.SDR.DTS-HD.MA.5.1.电影信息
  1. Video
  2. ID : 1
  3. Format : HEVC
  4. Format/Info : High Efficiency Video Coding
  5. Format profile : Main@L5@Main
  6. Codec ID : V_MPEGH/ISO/HEVC
  7. Duration : 2 h 21 min
  8. Bit rate : 9 584 kb/s
  9. Width : 3 840 pixels
  10. Height : 1 600 pixels
  11. Display aspect ratio : 2.40:1
  12. Frame rate mode : Constant
  13. Frame rate : 23.976 (24000/1001) FPS
  14. Standard : NTSC
  15. Color space : YUV
  16. Chroma subsampling : 4:2:0
  17. Bit depth : 8 bits
  18. Bits/(Pixel*Frame) : 0.065
  19. Stream size : 9.45 GiB (68%)
  20. Writing library : x265 2.9_elemental+1-9e0607aa5b6f:[Linux][GCC 4.8.5][64 bit] 8bit+10bit+12bit
  21. Encoding settings : cpuid=1111039 / frame-threads=2 / wpp / no-pmode / no-pme / psnr / ssim / log-level=2 / csv / csv-log-level=2 / input-csp=1 / input-res=3840x1600 / interlace=0 / total-frames=0 / level-idc=50 / high-tier=1 / uhd-bd=0 / ref=5 / no-allow-non-conformance / no-repeat-headers / annexb / no-aud / no-hrd / info / hash=0 / no-temporal-layers / no-open-gop / min-keyint=61 / keyint=120 / gop-lookahead=0 / bframes=8 / b-adapt=2 / b-pyramid / bframe-bias=0 / rc-lookahead=120 / lookahead-slices=4 / scenecut=0 / radl=0 / no-intra-refresh / ctu=64 / min-cu-size=8 / rect / amp / max-tu-size=32 / tu-inter-depth=4 / tu-intra-depth=4 / limit-tu=4 / rdoq-level=2 / dynamic-rd=0.00 / no-ssim-rd / signhide / tskip / nr-intra=100 / nr-inter=600 / no-constrained-intra / strong-intra-smoothing / max-merge=3 / limit-refs=3 / limit-modes / me=3 / subme=3 / merange=57 / temporal-mvp / weightp / weightb / no-analyze-src-pics / deblock=0:0 / no-sao / no-sao-non-deblock / rd=4 / no-early-skip / no-rskip / no-fast-intra / tskip-fast / no-cu-lossless / b-intra / no-splitrd-skip / rdpenalty=0 / psy-rd=4.00 / psy-rdoq=10.00 / no-rd-refine / no-lossless / cbqpoffs=0 / crqpoffs=0 / rc=crf / crf=25.0 / qcomp=0.60 / qpstep=1 / stats-write=0 / stats-read=0 / vbv-maxrate=15000 / vbv-bufsize=20000 / vbv-init=0.9 / crf-max=0.0 / crf-min=0.0 / ipratio=1.10 / pbratio=1.00 / aq-mode=0 / aq-strength=1.50 / no-cutree / zone-count=0 / no-strict-cbr / qg-size=32 / rc-grain / qpmax=69 / qpmin=0 / const-vbv / sar=1 / overscan=0 / videoformat=2 / range=0 / colorprim=1 / transfer=1 / colormatrix=1 / chromaloc=0 / display-window=0 / max-cll=0,0 / min-luma=0 / max-luma=255 / log2-max-poc-lsb=8 / vui-timing-info / vui-hrd-info / slices=1 / opt-qp-pps / no-opt-ref-list-length-pps / no-multi-pass-opt-rps / scenecut-bias=0.05 / no-opt-cu-delta-qp / no-aq-motion / no-hdr / no-hdr-opt / no-dhdr10-opt / no-idr-recovery-sei / analysis-reuse-level=5 / scale-factor=0 / refine-intra=0 / refine-inter=0 / refine-mv=0 / no-limit-sao / ctu-info=0 / no-lowpass-dct / refine-mv-type=0 / copy-pic=1 / max-ausize-factor=1.0 / no-dynamic-refine / no-single-sei
  22. Default : Yes
  23. Forced : No
  24. Color range : Limited
  25. Color primaries : BT.709
  26. Transfer characteristics : BT.709
  27. Matrix coefficients : BT.709

  28. Audio #1
  29. ID : 2
  30. Format : DTS XLL
  31. Format/Info : Digital Theater Systems
  32. Commercial name : DTS-HD Master Audio
  33. Codec ID : A_DTS
  34. Duration : 2 h 21 min
  35. Bit rate mode : Variable
  36. Bit rate : 3 795 kb/s
  37. Channel(s) : 6 channels
  38. Channel layout : C L R Ls Rs LFE
  39. Sampling rate : 48.0 kHz
  40. Frame rate : 93.750 FPS (512 SPF)
  41. Bit depth : 24 bits
  42. Compression mode : Lossless
  43. Delay relative to video : 3 ms
  44. Stream size : 3.74 GiB (27%)
  45. Title : DTS-HD MA 5.1
  46. Language : English
  47. Default : Yes
  48. Forced : No

  49. Audio #2
  50. ID : 3
  51. Format : E-AC-3
  52. Format/Info : Enhanced AC-3
  53. Commercial name : Dolby Digital Plus
  54. Codec ID : A_EAC3
  55. Duration : 2 h 21 min
  56. Bit rate mode : Constant
  57. Bit rate : 640 kb/s
  58. Channel(s) : 6 channels
  59. Channel layout : L R C LFE Ls Rs
  60. Sampling rate : 48.0 kHz
  61. Frame rate : 31.250 FPS (1536 SPF)
  62. Compression mode : Lossy
  63. Stream size : 646 MiB (5%)
  64. Title : DDP 5.1
  65. Language : English
  66. Service kind : Complete Main
  67. Default : No
  68. Forced : No

  69. Text
  70. ID : 4
  71. Format : UTF-8
  72. Codec ID : S_TEXT/UTF8
  73. Codec ID/Info : UTF-8 Plain Text
  74. Duration : 2 h 10 min
  75. Bit rate : 49 b/s
  76. Count of elements : 1800
  77. Stream size : 46.9 KiB (0%)
  78. Language : English
  79. Default : Yes
  80. Forced : No

  81. Menu
  82. 00:00:00.000 : en:Amazon Studios
  83. 00:00:23.000 : en:Studio Logo
  84. 00:00:47.000 : en:Title Sequence
  85. 00:01:39.000 : en:The British Cavalry hunt for game
  86. 00:04:24.000 : en:The Fawcetts attend a ball
  87. 00:08:20.000 : en:Percy receives new orders
  88. 00:09:11.000 : en:The London Geographical Society asks Percy to consider this new quest
  89. 00:13:05.000 : en:Percy takes time at home to think about the offer
  90. 00:15:31.000 : en:Percy meets his exploration partner
  91. 00:21:27.000 : en:Percy and Henry enter uncharted territory in Eastern Bolivia
  92. 00:27:08.000 : en:The men begin their journey on the river
  93. 00:32:44.000 : en:The men find shelter at night
  94. 00:37:41.000 : en:The group touch on land to find a four-legged creature
  95. 00:44:57.000 : en:Nina and the children welcome Percy back
  96. 00:46:31.000 : en:Percy attends a dinner on behalf of James Murray
  97. 00:49:35.000 : en:Percy gives his speech leading to a new proposition
  98. 00:58:24.000 : en:Percy starts his new expedition into uncharted Amazonia
  99. 01:04:41.000 : en:Fawcett\'s party is welcomed into the village
  100. 01:11:09.000 : en:The team endures a setback as Murray slips behind
  101. 01:15:09.000 : en:Percy is faced with a decision that could prolong the team\'s expedition
  102. 01:18:08.000 : en:The team faces too large of a challenge
  103. 01:20:41.000 : en:Percy and the team return to London
  104. 01:22:56.000 : en:The team reports back to the geological society
  105. 01:27:41.000 : en:Jack tells his father what he thinks of him
  106. 01:30:41.000 : en:A fortune pushes Percy to lead a battle through the trenches
  107. 01:39:44.000 : en:Percy is greeted at the hospital with a warm embrace by his family
  108. 01:42:49.000 : en:A new adventure is sparked by one of Percy\'s children
  109. 01:49:45.000 : en:Henry gives Percy his expedition notes
  110. 01:51:38.000 : en:The father-son duo announces their adventure to the public
  111. 01:53:51.000 : en:The family says goodbye to Percy and Jack as they get ready to embark
  112. 01:56:11.000 : en:Nina reads Percy\'s letter of progress through the jungle
  113. 01:58:59.000 : en:A man\'s reach should exceed his grasp or what\'s a heaven for
  114. 02:08:28.000 : en:His life\'s work is my life\'s work
  115. 02:12:18.000 : en:End Credits
复制代码

失落之城(台)/迷失Z城4k The.Lost.City.of.Z.2016.2160p.AMZN.WEB-DL.x265.8bit.SDR.DTS-HD.MA.5.1.电影下载

迷失Z城4k The.Lost.City.of.Z.2016.2160p.AMZN.WEB-DL.x265.8bit.SDR.DTS-HD.MA.5.1.【13.83 GB】
[Hao4k]迷失Z城4k The.Lost.City.of.Z.2016.2160p.AMZN.WEB-DL.x265.8bit.SDR.DTS-HD..torrent (69.75 KB, 售价: 2 K币)
回复

使用道具 举报

全部回复2

rzdx 发表于 2021-1-24 22:03:18

rzdx 沙发

2021-1-24 22:03:18

中文字幕有吗?
回复 支持 反对

使用道具 举报

   发表回复

您需要登录后才可以回帖 登录 | 立即注册

返回列表 本版积分规则

  • 在线客服

  • 返回顶部