微博 微信

Hao4K影音

[美剧] 养虎为患4k Tiger.King.Murder.Mayhem.and.Madness.S01.2160p.纪录片美剧下载

2021-1-26 10:05:26 13299 0 |只看大图 回帖奖励 |倒序浏览 |阅读模式

大红色 楼主

2021-1-26 10:05:26

电视剧频道
电视剧封面:
电视剧名: 养虎为患4k
年  代: 2020  
国  家: 美国
类  别: 纪录片 
语  言: 英语
字  幕: -
上映日期: 2020-03-20
文件格式: mkv    
视频效果: 4K(3840x2160)    
资源大小: 33.53 GB
片  长: 48 分钟
导  演: 丽贝卡·切克林 / 埃里克·古德
剧情简介: 在比小说还奇怪的老虎主人世界里,有各种古怪和另类的人物,但几乎没有人能比乔·野生更引人注目。他是一个留着胭脂鱼发型、持枪的一夫多妻主义者和西部乡村歌手,管理着俄克拉荷马州的一个路边动物园。魅力超凡但误入歧途的乔和一群令人难以置信的人物(包括毒枭、骗子和邪教领袖)都对老虎以及这种危险动物所获得的地位和关注有着莫大的热情。但卡罗·巴斯金(老虎保护区的动物**人士和所有者)威胁要关闭他们的动物园时,事情变得可怕起来,他们的争斗最终让乔·野因一场雇凶杀人的阴谋而被捕,并揭露了一个扭曲黑暗的故事,而比老虎更危险的只有老虎的主人。
虎王(台) / Tiger King: Murder, Mayhem and Madness/养虎为患4k Tiger.King.Murder.Mayhem.and.Madness.S01.2160p.NF.WEB-DL.x265.10bit.HDR.DDP5.1.Atmos.纪录片美剧信息
  1. Video
  2. ID : 1
  3. Format : HEVC
  4. Format/Info : High Efficiency Video Coding
  5. Format profile : Main 10@L5@Main
  6. HDR format : SMPTE ST 2086, HDR10 compatible
  7. Codec ID : V_MPEGH/ISO/HEVC
  8. Duration : 47 min 53 s
  9. Bit rate : 15.1 Mb/s
  10. Width : 3 840 pixels
  11. Height : 2 160 pixels
  12. Display aspect ratio : 16:9
  13. Frame rate mode : Constant
  14. Frame rate : 23.976 (24000/1001) FPS
  15. Color space : YUV
  16. Chroma subsampling : 4:2:0 (Type 2)
  17. Bit depth : 10 bits
  18. Bits/(Pixel*Frame) : 0.076
  19. Stream size : 5.07 GiB (95%)
  20. Default : Yes
  21. Forced : No
  22. Color range : Limited
  23. Color primaries : BT.2020
  24. Transfer characteristics : PQ
  25. Matrix coefficients : BT.2020 non-constant
  26. Mastering display color primaries : Display P3
  27. Mastering display luminance : min: 0.0001 cd/m2, max: 1000 cd/m2
  28. Maximum Content Light Level : 1004 cd/m2
  29. Maximum Frame-Average Light Level : 215 cd/m2

  30. Audio
  31. ID : 2
  32. Format : E-AC-3 JOC
  33. Format/Info : Enhanced AC-3 with Joint Object Coding
  34. Commercial name : Dolby Digital Plus with Dolby Atmos
  35. Codec ID : A_EAC3
  36. Duration : 48 min 43 s
  37. Bit rate mode : Constant
  38. Bit rate : 768 kb/s
  39. Channel(s) : 6 channels
  40. Channel layout : L R C LFE Ls Rs
  41. Sampling rate : 48.0 kHz
  42. Frame rate : 31.250 FPS (1536 SPF)
  43. Compression mode : Lossy
  44. Stream size : 268 MiB (5%)
  45. Title : English
  46. Language : English
  47. Service kind : Complete Main
  48. Default : Yes
  49. Forced : No
  50. Complexity index : 16
  51. Number of dynamic objects : 15
  52. Bed channel count : 1 channel
  53. Bed channel configuration : LFE

  54. Text #1
  55. ID : 3
  56. Format : UTF-8
  57. Codec ID : S_TEXT/UTF8
  58. Codec ID/Info : UTF-8 Plain Text
  59. Duration : 46 min 36 s
  60. Bit rate : 131 b/s
  61. Count of elements : 842
  62. Stream size : 44.9 KiB (0%)
  63. Language : English
  64. Default : No
  65. Forced : No

  66. Text #2
  67. ID : 4
  68. Format : UTF-8
  69. Codec ID : S_TEXT/UTF8
  70. Codec ID/Info : UTF-8 Plain Text
  71. Duration : 46 min 36 s
  72. Bit rate : 168 b/s
  73. Count of elements : 849
  74. Stream size : 57.7 KiB (0%)
  75. Language : Arabic
  76. Default : No
  77. Forced : No

  78. Text #3
  79. ID : 5
  80. Format : UTF-8
  81. Codec ID : S_TEXT/UTF8
  82. Codec ID/Info : UTF-8 Plain Text
  83. Duration : 46 min 36 s
  84. Bit rate : 94 b/s
  85. Count of elements : 851
  86. Stream size : 32.2 KiB (0%)
  87. Language : Chinese
  88. Default : No
  89. Forced : No

  90. Text #4
  91. ID : 6
  92. Format : UTF-8
  93. Codec ID : S_TEXT/UTF8
  94. Codec ID/Info : UTF-8 Plain Text
  95. Duration : 46 min 36 s
  96. Bit rate : 96 b/s
  97. Count of elements : 876
  98. Stream size : 33.0 KiB (0%)
  99. Language : Chinese
  100. Default : No
  101. Forced : No

  102. Text #5
  103. ID : 7
  104. Format : UTF-8
  105. Codec ID : S_TEXT/UTF8
  106. Codec ID/Info : UTF-8 Plain Text
  107. Duration : 46 min 36 s
  108. Bit rate : 92 b/s
  109. Count of elements : 823
  110. Stream size : 31.6 KiB (0%)
  111. Language : Czech
  112. Default : No
  113. Forced : No

  114. Text #6
  115. ID : 8
  116. Format : UTF-8
  117. Codec ID : S_TEXT/UTF8
  118. Codec ID/Info : UTF-8 Plain Text
  119. Duration : 46 min 36 s
  120. Bit rate : 88 b/s
  121. Count of elements : 722
  122. Stream size : 30.2 KiB (0%)
  123. Language : Danish
  124. Default : No
  125. Forced : No

  126. Text #7
  127. ID : 9
  128. Format : UTF-8
  129. Codec ID : S_TEXT/UTF8
  130. Codec ID/Info : UTF-8 Plain Text
  131. Duration : 46 min 36 s
  132. Bit rate : 86 b/s
  133. Count of elements : 697
  134. Stream size : 29.6 KiB (0%)
  135. Language : Dutch
  136. Default : No
  137. Forced : No

  138. Text #8
  139. ID : 10
  140. Format : UTF-8
  141. Codec ID : S_TEXT/UTF8
  142. Codec ID/Info : UTF-8 Plain Text
  143. Duration : 46 min 36 s
  144. Bit rate : 92 b/s
  145. Count of elements : 824
  146. Stream size : 31.6 KiB (0%)
  147. Language : Finnish
  148. Default : No
  149. Forced : No

  150. Text #9
  151. ID : 11
  152. Format : UTF-8
  153. Codec ID : S_TEXT/UTF8
  154. Codec ID/Info : UTF-8 Plain Text
  155. Duration : 46 min 39 s
  156. Bit rate : 100 b/s
  157. Count of elements : 853
  158. Stream size : 34.4 KiB (0%)
  159. Language : French
  160. Default : No
  161. Forced : No

  162. Text #10
  163. ID : 12
  164. Format : UTF-8
  165. Codec ID : S_TEXT/UTF8
  166. Codec ID/Info : UTF-8 Plain Text
  167. Duration : 46 min 36 s
  168. Bit rate : 95 b/s
  169. Count of elements : 771
  170. Stream size : 32.5 KiB (0%)
  171. Language : German
  172. Default : No
  173. Forced : No

  174. Text #11
  175. ID : 13
  176. Format : UTF-8
  177. Codec ID : S_TEXT/UTF8
  178. Codec ID/Info : UTF-8 Plain Text
  179. Duration : 46 min 36 s
  180. Bit rate : 158 b/s
  181. Count of elements : 787
  182. Stream size : 54.2 KiB (0%)
  183. Language : Greek
  184. Default : No
  185. Forced : No

  186. Text #12
  187. ID : 14
  188. Format : UTF-8
  189. Codec ID : S_TEXT/UTF8
  190. Codec ID/Info : UTF-8 Plain Text
  191. Duration : 46 min 36 s
  192. Bit rate : 146 b/s
  193. Count of elements : 842
  194. Stream size : 49.9 KiB (0%)
  195. Language : Hebrew
  196. Default : No
  197. Forced : No

  198. Text #13
  199. ID : 15
  200. Format : UTF-8
  201. Codec ID : S_TEXT/UTF8
  202. Codec ID/Info : UTF-8 Plain Text
  203. Duration : 46 min 36 s
  204. Bit rate : 91 b/s
  205. Count of elements : 749
  206. Stream size : 31.2 KiB (0%)
  207. Language : Hungarian
  208. Default : No
  209. Forced : No

  210. Text #14
  211. ID : 16
  212. Format : UTF-8
  213. Codec ID : S_TEXT/UTF8
  214. Codec ID/Info : UTF-8 Plain Text
  215. Duration : 46 min 36 s
  216. Bit rate : 95 b/s
  217. Count of elements : 804
  218. Stream size : 32.6 KiB (0%)
  219. Language : Indonesian
  220. Default : No
  221. Forced : No

  222. Text #15
  223. ID : 17
  224. Format : UTF-8
  225. Codec ID : S_TEXT/UTF8
  226. Codec ID/Info : UTF-8 Plain Text
  227. Duration : 46 min 39 s
  228. Bit rate : 91 b/s
  229. Count of elements : 765
  230. Stream size : 31.3 KiB (0%)
  231. Language : Italian
  232. Default : No
  233. Forced : No

  234. Text #16
  235. ID : 18
  236. Format : UTF-8
  237. Codec ID : S_TEXT/UTF8
  238. Codec ID/Info : UTF-8 Plain Text
  239. Duration : 46 min 36 s
  240. Bit rate : 102 b/s
  241. Count of elements : 821
  242. Stream size : 35.1 KiB (0%)
  243. Language : Japanese
  244. Default : No
  245. Forced : No

  246. Text #17
  247. ID : 19
  248. Format : UTF-8
  249. Codec ID : S_TEXT/UTF8
  250. Codec ID/Info : UTF-8 Plain Text
  251. Duration : 47 min 35 s
  252. Bit rate : 119 b/s
  253. Count of elements : 824
  254. Stream size : 41.5 KiB (0%)
  255. Language : Korean
  256. Default : No
  257. Forced : No

  258. Text #18
  259. ID : 20
  260. Format : UTF-8
  261. Codec ID : S_TEXT/UTF8
  262. Codec ID/Info : UTF-8 Plain Text
  263. Duration : 46 min 36 s
  264. Bit rate : 83 b/s
  265. Count of elements : 734
  266. Stream size : 28.4 KiB (0%)
  267. Language : Norwegian Bokmal
  268. Default : No
  269. Forced : No

  270. Text #19
  271. ID : 21
  272. Format : UTF-8
  273. Codec ID : S_TEXT/UTF8
  274. Codec ID/Info : UTF-8 Plain Text
  275. Duration : 46 min 36 s
  276. Bit rate : 87 b/s
  277. Count of elements : 763
  278. Stream size : 29.9 KiB (0%)
  279. Language : Polish
  280. Default : No
  281. Forced : No

  282. Text #20
  283. ID : 22
  284. Format : UTF-8
  285. Codec ID : S_TEXT/UTF8
  286. Codec ID/Info : UTF-8 Plain Text
  287. Duration : 46 min 36 s
  288. Bit rate : 96 b/s
  289. Count of elements : 824
  290. Stream size : 32.9 KiB (0%)
  291. Language : Portuguese
  292. Default : No
  293. Forced : No

  294. Text #21
  295. ID : 23
  296. Format : UTF-8
  297. Codec ID : S_TEXT/UTF8
  298. Codec ID/Info : UTF-8 Plain Text
  299. Duration : 46 min 36 s
  300. Bit rate : 96 b/s
  301. Count of elements : 808
  302. Stream size : 33.1 KiB (0%)
  303. Language : Portuguese
  304. Default : No
  305. Forced : No

  306. Text #22
  307. ID : 24
  308. Format : UTF-8
  309. Codec ID : S_TEXT/UTF8
  310. Codec ID/Info : UTF-8 Plain Text
  311. Duration : 46 min 36 s
  312. Bit rate : 105 b/s
  313. Count of elements : 736
  314. Stream size : 35.9 KiB (0%)
  315. Language : Romanian
  316. Default : No
  317. Forced : No

  318. Text #23
  319. ID : 25
  320. Format : UTF-8
  321. Codec ID : S_TEXT/UTF8
  322. Codec ID/Info : UTF-8 Plain Text
  323. Duration : 46 min 36 s
  324. Bit rate : 150 b/s
  325. Count of elements : 772
  326. Stream size : 51.3 KiB (0%)
  327. Language : Russian
  328. Default : No
  329. Forced : No

  330. Text #24
  331. ID : 26
  332. Format : UTF-8
  333. Codec ID : S_TEXT/UTF8
  334. Codec ID/Info : UTF-8 Plain Text
  335. Duration : 46 min 36 s
  336. Bit rate : 97 b/s
  337. Count of elements : 829
  338. Stream size : 33.3 KiB (0%)
  339. Language : Spanish
  340. Default : No
  341. Forced : No

  342. Text #25
  343. ID : 27
  344. Format : UTF-8
  345. Codec ID : S_TEXT/UTF8
  346. Codec ID/Info : UTF-8 Plain Text
  347. Duration : 47 min 35 s
  348. Bit rate : 90 b/s
  349. Count of elements : 833
  350. Stream size : 31.4 KiB (0%)
  351. Language : Spanish
  352. Default : No
  353. Forced : No

  354. Text #26
  355. ID : 28
  356. Format : UTF-8
  357. Codec ID : S_TEXT/UTF8
  358. Codec ID/Info : UTF-8 Plain Text
  359. Duration : 46 min 36 s
  360. Bit rate : 94 b/s
  361. Count of elements : 657
  362. Stream size : 32.2 KiB (0%)
  363. Language : Swedish
  364. Default : No
  365. Forced : No

  366. Text #27
  367. ID : 29
  368. Format : UTF-8
  369. Codec ID : S_TEXT/UTF8
  370. Codec ID/Info : UTF-8 Plain Text
  371. Duration : 46 min 36 s
  372. Bit rate : 248 b/s
  373. Count of elements : 854
  374. Stream size : 84.9 KiB (0%)
  375. Language : Thai
  376. Default : No
  377. Forced : No

  378. Text #28
  379. ID : 30
  380. Format : UTF-8
  381. Codec ID : S_TEXT/UTF8
  382. Codec ID/Info : UTF-8 Plain Text
  383. Duration : 46 min 36 s
  384. Bit rate : 93 b/s
  385. Count of elements : 802
  386. Stream size : 31.9 KiB (0%)
  387. Language : Turkish
  388. Default : No
  389. Forced : No

  390. Text #29
  391. ID : 31
  392. Format : UTF-8
  393. Codec ID : S_TEXT/UTF8
  394. Codec ID/Info : UTF-8 Plain Text
  395. Duration : 46 min 36 s
  396. Bit rate : 134 b/s
  397. Count of elements : 763
  398. Stream size : 45.9 KiB (0%)
  399. Language : Vietnamese
  400. Default : No
  401. Forced : No
复制代码

虎王(台) / Tiger King: Murder, Mayhem and Madness/养虎为患4k Tiger.King.Murder.Mayhem.and.Madness.S01.2160p.NF.WEB-DL.x265.10bit.HDR.DDP5.1.Atmos.纪录片美剧下载

养虎为患4k Tiger.King.Murder.Mayhem.and.Madness.S01.2160p.NF.WEB-DL.x265.10bit.HDR.DDP5.1.Atmos【33.53 GB】
[Hao4k]养虎为患4k Tiger.King.Murder.Mayhem.and.Madness.S01.2160p.NF.WEB-DL.x265..torrent (85.28 KB)
回复

使用道具 举报

   发表回复

您需要登录后才可以回帖 登录 | 立即注册

返回列表 本版积分规则

:
白银玩家
:
未填写

主题

帖子

积分995

图文推荐

  • 将羊毛薅到一根不剩--百度网盘免会员高速下

    百度网盘是要购买会员的,30大洋/月的会员费对于

  • Yuran DIY制定硬盘(UHD-BD)片源存储管理规

    有言在先:原创不易,深夜写成。也很忙,暂不回复

  • 2019年你必须知道的4k庭影院音响摆位8大重

    2019年你必须知道的4k庭影院音响摆位8大重点

  • 关于收藏《4KUHD蓝光原盘》还是《4KUHD蓝光

    《4K UHD 蓝光原盘》 优点:有导航菜单和电影幕后

  • 家庭影院组建指南:如何组建低预算的家庭影

    如何组建低预算的家庭影院 — 不发烧只为看电影

  • 在线客服

  • 返回顶部