微博 微信

Hao4K影音

电影频道
电影封面:
片  名: 宇宙时空之旅4k
电影分类: 纪录片 
国  家: 美国 
年  代: 2014年
分 辨 率: 4K(3840x2160)
电影格式: MKV|REMUX 
画质标准: 其他 
音质编码: 其他AAC 
电影声道: 5.1声道 
帧数/FPS: 23.976 FPS
电影语言: 英文原版 
资源大小: 19.7 GB
导  演: 布兰农·布拉加 / 安·德鲁扬 / 比尔·波普 / 凯文·达特
豆瓣评分: 9.7 分
中文字幕: -
剧情简介: 《卡尔·萨根的宇宙》的更新重制版。
宇宙:一场时空漫游 / 宇宙:时空之旅 / 宇宙:时空奥德赛/宇宙时空之旅4k Cosmos A SpaceTime Odyssey 2014 Season 01 S01 2160p BluRay AI x265 HEVC 10bit AC2 5.1纪录片信息
  1. Video
  2. ID : 1
  3. Format : HEVC
  4. Format/Info : High Efficiency Video Coding
  5. Codec ID : V_MPEGH/ISO/HEVC
  6. Duration : 45 min 14 s
  7. Bit rate : 4 006 kb/s
  8. Width : 3 840 pixels
  9. Height : 2 160 pixels
  10. Display aspect ratio : 16:9
  11. Frame rate mode : Constant
  12. Frame rate : 23.976 (24000/1001) FPS
  13. Color space : YUV
  14. Chroma subsampling : 4:2:0
  15. Bit depth : 10 bits
  16. Bits/(Pixel*Frame) : 0.020
  17. Stream size : 1.27 GiB (90%)
  18. Writing library : x265 3.2+9-971180b100f8:[Windows][GCC 9.2.0][64 bit] 10bit
  19. Default : Yes
  20. Forced : No

  21. Audio
  22. ID : 2
  23. Format : AC-3
  24. Format/Info : Audio Coding 3
  25. Mode extension : CM (complete main)
  26. Format settings, Endianness : Big
  27. Codec ID : A_AC3
  28. Duration : 45 min 14 s
  29. Bit rate mode : Constant
  30. Bit rate : 384 kb/s
  31. Channel(s) : 6 channels
  32. Channel positions : Front: L C R, Side: L R, LFE
  33. Sampling rate : 48.0 kHz
  34. Frame rate : 31.250 FPS (1536 spf)
  35. Bit depth : 16 bits
  36. Compression mode : Lossy
  37. Stream size : 124 MiB (9%)
  38. Title : DTS-HD MA 5.1
  39. Language : English
  40. Default : No
  41. Forced : No

  42. Subtitle #1
  43. ID : 3
  44. Format : VobSub
  45. Muxing mode : zlib
  46. Codec ID : S_VOBSUB
  47. Codec ID/Info : Picture based subtitle format used on DVDs
  48. Duration : 42 min 21 s
  49. Bit rate : 14.5 kb/s
  50. Count of elements : 562
  51. Stream size : 4.39 MiB (0%)
  52. Language : English
  53. Default : No
  54. Forced : No

  55. Subtitle #2
  56. ID : 4
  57. Format : VobSub
  58. Muxing mode : zlib
  59. Codec ID : S_VOBSUB
  60. Codec ID/Info : Picture based subtitle format used on DVDs
  61. Duration : 45 min 9 s
  62. Bit rate : 14.1 kb/s
  63. Count of elements : 558
  64. Stream size : 4.56 MiB (0%)
  65. Language : Spanish
  66. Default : No
  67. Forced : No

  68. Subtitle #3
  69. ID : 5
  70. Format : VobSub
  71. Muxing mode : zlib
  72. Codec ID : S_VOBSUB
  73. Codec ID/Info : Picture based subtitle format used on DVDs
  74. Duration : 45 min 9 s
  75. Bit rate : 14.1 kb/s
  76. Count of elements : 557
  77. Stream size : 4.55 MiB (0%)
  78. Language : French
  79. Default : No
  80. Forced : No

  81. Subtitle #4
  82. ID : 6
  83. Format : VobSub
  84. Muxing mode : zlib
  85. Codec ID : S_VOBSUB
  86. Codec ID/Info : Picture based subtitle format used on DVDs
  87. Duration : 45 min 9 s
  88. Bit rate : 12.2 kb/s
  89. Count of elements : 462
  90. Stream size : 3.94 MiB (0%)
  91. Language : Dutch
  92. Default : No
  93. Forced : No

  94. Subtitle #5
  95. ID : 7
  96. Format : VobSub
  97. Muxing mode : zlib
  98. Codec ID : S_VOBSUB
  99. Codec ID/Info : Picture based subtitle format used on DVDs
  100. Duration : 45 min 9 s
  101. Bit rate : 13.9 kb/s
  102. Count of elements : 562
  103. Stream size : 4.50 MiB (0%)
  104. Language : Portuguese
  105. Default : No
  106. Forced : No

  107. Subtitle #6
  108. ID : 8
  109. Format : VobSub
  110. Muxing mode : zlib
  111. Codec ID : S_VOBSUB
  112. Codec ID/Info : Picture based subtitle format used on DVDs
  113. Duration : 27 min 24 s
  114. Bit rate : 172 b/s
  115. Count of elements : 9
  116. Stream size : 34.7 KiB (0%)
  117. Language : Portuguese
  118. Default : No
  119. Forced : Yes

  120. Menu
  121. 00:00:00.000 : en:Chapter 01
  122. 00:02:15.760 : en:Chapter 02
  123. 00:05:19.610 : en:Chapter 03
  124. 00:08:28.132 : en:Chapter 04
  125. 00:14:29.577 : en:Chapter 05
  126. 00:15:59.416 : en:Chapter 06
  127. 00:22:03.447 : en:Chapter 07
  128. 00:28:32.377 : en:Chapter 08
  129. 00:33:34.220 : en:Chapter 09
  130. 00:35:28.292 : en:Chapter 10
  131. 00:39:32.495 : en:Chapter 11
  132. 00:42:34.343 : en:Chapter 12
复制代码


宇宙:一场时空漫游 / 宇宙:时空之旅 / 宇宙:时空奥德赛/宇宙时空之旅4k Cosmos A SpaceTime Odyssey 2014 Season 01 S01 2160p BluRay AI x265 HEVC 10bit AC2 5.1纪录片下载

宇宙时空之旅4k Cosmos A SpaceTime Odyssey 2014 Season 01 S01 2160p BluRay AI x265 HEVC 10bit AC2 5.1【19.7 GB】
宇宙时空之旅4k.txt (94 Bytes)
回复

使用道具 举报

全部回复13

opkqq00 发表于 2021-1-27 16:01:52

opkqq00 沙发

2021-1-27 16:01:52


谢谢分享
回复 支持 反对

使用道具 举报

月光麦田 发表于 2021-1-27 16:35:06

月光麦田 板凳

2021-1-27 16:35:06

谢谢楼主分享
回复 支持 反对

使用道具 举报

fengz_007 发表于 2021-1-28 12:37:18

fengz_007 地板

2021-1-28 12:37:18

感谢分享!
回复 支持 反对

使用道具 举报

lywzj238 发表于 2021-1-28 15:05:11

lywzj238 5#

2021-1-28 15:05:11

谢谢分享好电影
回复 支持 反对

使用道具 举报

lvchaos 发表于 2021-1-28 23:15:04

lvchaos 6#

2021-1-28 23:15:04

求字慕啊
回复 支持 反对

使用道具 举报

guiguziqin 发表于 2021-2-18 10:56:46

guiguziqin 7#

2021-2-18 10:56:46

感谢分享,特别喜欢这个纪录片
回复 支持 反对

使用道具 举报

dyzfg 发表于 2021-2-23 20:56:32

dyzfg 8#

2021-2-23 20:56:32

谢谢分享
回复 支持 反对

使用道具 举报

streetwise 发表于 6 天前

streetwise 9#

6 天前

有HEVC了吗?
回复 支持 反对

使用道具 举报

littlecrab 发表于 6 天前

littlecrab 10#

6 天前

谢谢分享!!
回复 支持 反对

使用道具 举报

boatzhang 发表于 5 天前

boatzhang 11#

5 天前

hao4k有你更精彩
回复 支持 反对

使用道具 举报

dfj2006 发表于 4 天前

dfj2006 12#

4 天前


谢谢分享好电影
回复 支持 反对

使用道具 举报

deanma 发表于 昨天 19:39

deanma 13#

昨天 19:39

这个4k体积还不大
回复 支持 反对

使用道具 举报

deanma 发表于 昨天 22:48

deanma 14#

昨天 22:48

E4和E5,E9和E10的标题反了,其他都挺好
回复 支持 反对

使用道具 举报

   发表回复

您需要登录后才可以回帖 登录 | 立即注册

返回列表 本版积分规则

  • 在线客服

  • 返回顶部