微博 微信

Hao4K影音

电影频道
电影封面:
片  名: 在无爱之森呐喊4k
电影分类: 犯罪 惊悚 
国  家: 日本 
年  代: 2019年
分 辨 率: 4K(3840x2160)
电影格式: MKV|REMUX 
画质标准: SDR 
音质编码: Dolby Digital Plus Audio 
电影声道: 5.1声道 
帧数/FPS: 23.976 FPS
电影语言: 日语 
资源大小: 13.95 GB GB
导  演: 园子温
豆瓣评分: 6.8 分
中文字幕: /thread-53741-1-1.html
剧情简介: 《在没有爱的森林呐喊》审视了人类行为的黑暗面,讲述了冷酷无情的村田丈利用自己的魅力来操纵周围的人。村田认识了信和一群胸怀抱负的电影制作人,他们认为村田以及他与美津子的多 磨的感情关系是完美的电影主题。在拍摄期间,这群人的关系越来越亲密,谎言与真相变得难以区分,人性的极限也受到了考验,导致了各种令人毛骨悚然的行为。在怪诞出奇的作品的《冰冷热带鱼》和《恋之罪》之后,富有远见的导演园子温又在新作品中展现了自己的才能。
情罔森林(港) / 在无爱之森放声呐喊(台) / 在没有爱的森林呐喊 / 在无爱森林呐喊 / 在无爱的森林呐喊 / The Forest of Love/在无爱之森呐喊4k The.Forest.of.Love.2019.JAPANESE.2160p.NF.WEB-DL.x265.10bit.SDR.DDP5.1.电影信息
  1. Video
  2. ID : 1
  3. Format : HEVC
  4. Format/Info : High Efficiency Video Coding
  5. Format profile : Main 10@L5@Main
  6. Codec ID : V_MPEGH/ISO/HEVC
  7. Duration : 2 h 31 min
  8. Bit rate : 11.9 Mb/s
  9. Width : 3 840 pixels
  10. Height : 2 160 pixels
  11. Display aspect ratio : 16:9
  12. Frame rate mode : Constant
  13. Frame rate : 23.976 (24000/1001) FPS
  14. Color space : YUV
  15. Chroma subsampling : 4:2:0
  16. Bit depth : 10 bits
  17. Bits/(Pixel*Frame) : 0.060
  18. Stream size : 12.6 GiB (90%)
  19. Language : Japanese
  20. Default : Yes
  21. Forced : No
  22. Color range : Limited
  23. Color primaries : BT.709
  24. Transfer characteristics : BT.709
  25. Matrix coefficients : BT.709

  26. Audio #1
  27. ID : 2
  28. Format : E-AC-3
  29. Format/Info : Enhanced AC-3
  30. Commercial name : Dolby Digital Plus
  31. Codec ID : A_EAC3
  32. Duration : 2 h 31 min
  33. Bit rate mode : Constant
  34. Bit rate : 640 kb/s
  35. Channel(s) : 6 channels
  36. Channel layout : L R C LFE Ls Rs
  37. Sampling rate : 48.0 kHz
  38. Frame rate : 31.250 FPS (1536 SPF)
  39. Compression mode : Lossy
  40. Stream size : 693 MiB (5%)
  41. Title : DDP 5.1
  42. Language : Japanese
  43. Service kind : Complete Main
  44. Default : Yes
  45. Forced : No

  46. Audio #2
  47. ID : 3
  48. Format : E-AC-3
  49. Format/Info : Enhanced AC-3
  50. Commercial name : Dolby Digital Plus
  51. Codec ID : A_EAC3
  52. Duration : 2 h 31 min
  53. Bit rate mode : Constant
  54. Bit rate : 640 kb/s
  55. Channel(s) : 6 channels
  56. Channel layout : L R C LFE Ls Rs
  57. Sampling rate : 48.0 kHz
  58. Frame rate : 31.250 FPS (1536 SPF)
  59. Compression mode : Lossy
  60. Stream size : 693 MiB (5%)
  61. Title : DDP 5.1
  62. Language : English
  63. Service kind : Complete Main
  64. Default : No
  65. Forced : No

  66. Text #1
  67. ID : 4
  68. Format : UTF-8
  69. Codec ID : S_TEXT/UTF8
  70. Codec ID/Info : UTF-8 Plain Text
  71. Duration : 2 h 28 min
  72. Bit rate : 53 b/s
  73. Count of elements : 2210
  74. Stream size : 57.5 KiB (0%)
  75. Language : English
  76. Default : Yes
  77. Forced : No

  78. Text #2
  79. ID : 5
  80. Format : UTF-8
  81. Codec ID : S_TEXT/UTF8
  82. Codec ID/Info : UTF-8 Plain Text
  83. Duration : 1 h 55 min
  84. Bit rate : 1 b/s
  85. Count of elements : 51
  86. Stream size : 1.06 KiB (0%)
  87. Title : Forced
  88. Language : English
  89. Default : No
  90. Forced : No

  91. Text #3
  92. ID : 6
  93. Format : UTF-8
  94. Codec ID : S_TEXT/UTF8
  95. Codec ID/Info : UTF-8 Plain Text
  96. Duration : 2 h 28 min
  97. Bit rate : 87 b/s
  98. Count of elements : 2432
  99. Stream size : 95.4 KiB (0%)
  100. Title : SDH
  101. Language : Japanese
  102. Default : No
  103. Forced : No

  104. Text #4
  105. ID : 7
  106. Format : UTF-8
  107. Codec ID : S_TEXT/UTF8
  108. Codec ID/Info : UTF-8 Plain Text
  109. Duration : 2 h 31 min
  110. Bit rate : 91 b/s
  111. Count of elements : 2065
  112. Stream size : 102 KiB (0%)
  113. Language : Arabic
  114. Default : No
  115. Forced : No

  116. Text #5
  117. ID : 8
  118. Format : UTF-8
  119. Codec ID : S_TEXT/UTF8
  120. Codec ID/Info : UTF-8 Plain Text
  121. Duration : 2 h 31 min
  122. Bit rate : 51 b/s
  123. Count of elements : 2055
  124. Stream size : 57.4 KiB (0%)
  125. Language : Czech
  126. Default : No
  127. Forced : No

  128. Text #6
  129. ID : 9
  130. Format : UTF-8
  131. Codec ID : S_TEXT/UTF8
  132. Codec ID/Info : UTF-8 Plain Text
  133. Duration : 2 h 31 min
  134. Bit rate : 51 b/s
  135. Count of elements : 2081
  136. Stream size : 57.0 KiB (0%)
  137. Language : Danish
  138. Default : No
  139. Forced : No

  140. Text #7
  141. ID : 10
  142. Format : UTF-8
  143. Codec ID : S_TEXT/UTF8
  144. Codec ID/Info : UTF-8 Plain Text
  145. Duration : 2 h 31 min
  146. Bit rate : 58 b/s
  147. Count of elements : 2057
  148. Stream size : 65.1 KiB (0%)
  149. Language : German
  150. Default : No
  151. Forced : No

  152. Text #8
  153. ID : 11
  154. Format : UTF-8
  155. Codec ID : S_TEXT/UTF8
  156. Codec ID/Info : UTF-8 Plain Text
  157. Duration : 2 h 31 min
  158. Bit rate : 89 b/s
  159. Count of elements : 2083
  160. Stream size : 98.6 KiB (0%)
  161. Language : Greek
  162. Default : No
  163. Forced : No

  164. Text #9
  165. ID : 12
  166. Format : UTF-8
  167. Codec ID : S_TEXT/UTF8
  168. Codec ID/Info : UTF-8 Plain Text
  169. Duration : 2 h 31 min
  170. Bit rate : 53 b/s
  171. Count of elements : 2060
  172. Stream size : 59.5 KiB (0%)
  173. Language : Spanish
  174. Default : No
  175. Forced : No

  176. Text #10
  177. ID : 13
  178. Format : UTF-8
  179. Codec ID : S_TEXT/UTF8
  180. Codec ID/Info : UTF-8 Plain Text
  181. Duration : 2 h 30 min
  182. Bit rate : 52 b/s
  183. Count of elements : 2073
  184. Stream size : 58.4 KiB (0%)
  185. Language : Spanish
  186. Default : No
  187. Forced : No

  188. Text #11
  189. ID : 14
  190. Format : UTF-8
  191. Codec ID : S_TEXT/UTF8
  192. Codec ID/Info : UTF-8 Plain Text
  193. Duration : 2 h 31 min
  194. Bit rate : 54 b/s
  195. Count of elements : 1997
  196. Stream size : 60.1 KiB (0%)
  197. Language : Finnish
  198. Default : No
  199. Forced : No

  200. Text #12
  201. ID : 15
  202. Format : UTF-8
  203. Codec ID : S_TEXT/UTF8
  204. Codec ID/Info : UTF-8 Plain Text
  205. Duration : 2 h 31 min
  206. Bit rate : 57 b/s
  207. Count of elements : 2048
  208. Stream size : 63.1 KiB (0%)
  209. Language : French
  210. Default : No
  211. Forced : No

  212. Text #13
  213. ID : 16
  214. Format : UTF-8
  215. Codec ID : S_TEXT/UTF8
  216. Codec ID/Info : UTF-8 Plain Text
  217. Duration : 2 h 31 min
  218. Bit rate : 84 b/s
  219. Count of elements : 2123
  220. Stream size : 93.6 KiB (0%)
  221. Language : Hebrew
  222. Default : No
  223. Forced : No

  224. Text #14
  225. ID : 17
  226. Format : UTF-8
  227. Codec ID : S_TEXT/UTF8
  228. Codec ID/Info : UTF-8 Plain Text
  229. Duration : 2 h 31 min
  230. Bit rate : 52 b/s
  231. Count of elements : 2195
  232. Stream size : 58.4 KiB (0%)
  233. Language : Hungarian
  234. Default : No
  235. Forced : No

  236. Text #15
  237. ID : 18
  238. Format : UTF-8
  239. Codec ID : S_TEXT/UTF8
  240. Codec ID/Info : UTF-8 Plain Text
  241. Duration : 2 h 31 min
  242. Bit rate : 52 b/s
  243. Count of elements : 2045
  244. Stream size : 57.8 KiB (0%)
  245. Language : Indonesian
  246. Default : No
  247. Forced : No

  248. Text #16
  249. ID : 19
  250. Format : UTF-8
  251. Codec ID : S_TEXT/UTF8
  252. Codec ID/Info : UTF-8 Plain Text
  253. Duration : 2 h 28 min
  254. Bit rate : 54 b/s
  255. Count of elements : 2194
  256. Stream size : 59.3 KiB (0%)
  257. Language : Italian
  258. Default : No
  259. Forced : No

  260. Text #17
  261. ID : 20
  262. Format : UTF-8
  263. Codec ID : S_TEXT/UTF8
  264. Codec ID/Info : UTF-8 Plain Text
  265. Duration : 2 h 31 min
  266. Bit rate : 69 b/s
  267. Count of elements : 2091
  268. Stream size : 77.1 KiB (0%)
  269. Language : Korean
  270. Default : No
  271. Forced : No
复制代码

情罔森林(港) / 在无爱之森放声呐喊(台) / 在没有爱的森林呐喊 / 在无爱森林呐喊 / 在无爱的森林呐喊 / The Forest of Love/在无爱之森呐喊4k The.Forest.of.Love.2019.JAPANESE.2160p.NF.WEB-DL.x265.10bit.SDR.DDP5.1.电影下载

在无爱之森呐喊4k The.Forest.of.Love.2019.JAPANESE.2160p.NF.WEB-DL.x265.10bit.SDR.DDP5.1【13.95 GB】
[Hao4k]在无爱之森呐喊4k The.Forest.of.Love.2019.JAPANESE.2160p.NF.WEB-DL.x265.10.torrent (70.34 KB)
回复

使用道具 举报

全部回复16

chuchan1 发表于 2021-1-27 09:02:25

chuchan1 沙发

2021-1-27 09:02:25

谢谢分享!
回复 支持 反对

使用道具 举报

panbell 发表于 2021-1-27 09:30:04

panbell 板凳

2021-1-27 09:30:04

谢谢分享,辛苦了!!
回复 支持 反对

使用道具 举报

罗洋 发表于 2021-1-27 11:09:54

罗洋 地板

2021-1-27 11:09:54

感谢分享,有看过的来说说怎么样...
回复 支持 反对

使用道具 举报

chuchan1 发表于 2021-1-28 13:29:14

chuchan1 5#

2021-1-28 13:29:14


谢谢分享!
回复 支持 反对

使用道具 举报

2019hk2125 发表于 2021-1-29 10:07:10

2019hk2125 6#

2021-1-29 10:07:10

冰冷热带鱼看过还行。
回复 支持 反对

使用道具 举报

chuchan1 发表于 2021-1-29 10:16:51

chuchan1 7#

2021-1-29 10:16:51

谢谢分享,支持一下
回复 支持 反对

使用道具 举报

chuchan1 发表于 2021-1-29 10:21:10

chuchan1 8#

2021-1-29 10:21:10

谢谢分享,支持一下
回复 支持 反对

使用道具 举报

Makoto8023 发表于 2021-1-30 10:39:02

Makoto8023 9#

2021-1-30 10:39:02

谢谢分享
回复 支持 反对

使用道具 举报

verbal1234 发表于 2021-1-30 17:25:01

verbal1234 10#

2021-1-30 17:25:01

谢谢分享
回复 支持 反对

使用道具 举报

japanconan 发表于 2021-1-31 11:35:19

japanconan 11#

2021-1-31 11:35:19

谢谢分享~~~~~~~~~~~
回复 支持 反对

使用道具 举报

ww6 发表于 2021-2-1 10:45:43

ww6 12#

2021-2-1 10:45:43

谢谢分享
回复 支持 反对

使用道具 举报

lch1164840694 发表于 2021-2-3 09:27:18

lch1164840694 13#

2021-2-3 09:27:18

感谢楼主
回复 支持 反对

使用道具 举报

mninila 发表于 2021-2-4 18:55:40

mninila 14#

2021-2-4 18:55:40

谢谢分享,很棒
回复 支持 反对

使用道具 举报

wangfs235 发表于 2021-2-9 17:53:08

wangfs235 15#

2021-2-9 17:53:08

感谢分享
回复 支持 反对

使用道具 举报

brockf5 发表于 2021-2-14 20:34:51

brockf5 16#

2021-2-14 20:34:51

非常经典的电影 感谢分享
回复 支持 反对

使用道具 举报

andywjhh 发表于 2021-2-17 08:54:57

andywjhh 17#

2021-2-17 08:54:57

感谢楼主的分享
回复 支持 反对

使用道具 举报

   发表回复

您需要登录后才可以回帖 登录 | 立即注册

返回列表 本版积分规则

  • 在线客服

  • 返回顶部