微博 微信

Hao4K影音

电影频道
电影封面:
片  名: 美国之子4k
电影分类: 剧情 
国  家: 美国 
年  代: 2019年
分 辨 率: 4K(3840x2160)
电影格式: MKV|REMUX 
画质标准: HDR SDR 
音质编码: Dolby Digital Plus Audio 
电影声道: 5.1声道 
帧数/FPS: 23.976 FPS
电影语言: 英文原版 
资源大小: 10.33 GB
导  演: 肯尼·列昂
豆瓣评分: 6.3 分
中文字幕: /thread-53740-1-1.html
剧情简介: 改编自备受好评的百老汇舞台剧,讲述了肯德拉·埃利斯-康纳(荣获艾美奖提名的凯丽·华盛顿饰)的故事,她是一名失踪少年的母亲,在南佛罗里达州的警察局里,她正在向警方努力讲述零散的记忆。史蒂文·帕斯奎尔、杰瑞米·乔登和李侑珍也在这部改编剧集再次出演自己的角色。本剧向观众展示了四种不同的观点,也展现了一对跨种族的夫妇抚养混血儿子的独特历程。
美国男孩(港) / 美国儿子 / 美国式儿子/美国之子4k American.Son.2019.2160p.NF.WEB-DL.x265.10bit.HDR.DDP5.1.电影信息
  1. Video
  2. ID : 1
  3. Format : HEVC
  4. Format/Info : High Efficiency Video Coding
  5. Format profile : Main 10@L5@Main
  6. HDR format : SMPTE ST 2086, HDR10 compatible
  7. Codec ID : V_MPEGH/ISO/HEVC
  8. Duration : 1 h 29 min
  9. Bit rate : 15.8 Mb/s
  10. Width : 3 840 pixels
  11. Height : 2 160 pixels
  12. Display aspect ratio : 16:9
  13. Frame rate mode : Constant
  14. Frame rate : 23.976 (24000/1001) FPS
  15. Color space : YUV
  16. Chroma subsampling : 4:2:0 (Type 2)
  17. Bit depth : 10 bits
  18. Bits/(Pixel*Frame) : 0.079
  19. Stream size : 9.92 GiB (96%)
  20. Default : Yes
  21. Forced : No
  22. Color range : Limited
  23. Color primaries : BT.2020
  24. Transfer characteristics : PQ
  25. Matrix coefficients : BT.2020 non-constant
  26. Mastering display color primaries : Display P3
  27. Mastering display luminance : min: 0.0020 cd/m2, max: 1000 cd/m2
  28. Maximum Content Light Level : 745 cd/m2
  29. Maximum Frame-Average Light Level : 138 cd/m2

  30. Audio
  31. ID : 2
  32. Format : E-AC-3
  33. Format/Info : Enhanced AC-3
  34. Commercial name : Dolby Digital Plus
  35. Codec ID : A_EAC3
  36. Duration : 1 h 30 min
  37. Bit rate mode : Constant
  38. Bit rate : 640 kb/s
  39. Channel(s) : 6 channels
  40. Channel layout : L R C LFE Ls Rs
  41. Sampling rate : 48.0 kHz
  42. Frame rate : 31.250 FPS (1536 SPF)
  43. Compression mode : Lossy
  44. Stream size : 413 MiB (4%)
  45. Title : DDP 5.1
  46. Language : English
  47. Service kind : Complete Main
  48. Default : Yes
  49. Forced : No

  50. Text #1
  51. ID : 3
  52. Format : UTF-8
  53. Codec ID : S_TEXT/UTF8
  54. Codec ID/Info : UTF-8 Plain Text
  55. Duration : 1 h 29 min
  56. Bit rate : 100 b/s
  57. Count of elements : 1865
  58. Stream size : 65.8 KiB (0%)
  59. Language : English
  60. Default : Yes
  61. Forced : No

  62. Text #2
  63. ID : 4
  64. Format : UTF-8
  65. Codec ID : S_TEXT/UTF8
  66. Codec ID/Info : UTF-8 Plain Text
  67. Duration : 1 h 26 min
  68. Bit rate : 148 b/s
  69. Count of elements : 1644
  70. Stream size : 93.9 KiB (0%)
  71. Language : Arabic
  72. Default : No
  73. Forced : No

  74. Text #3
  75. ID : 5
  76. Format : UTF-8
  77. Codec ID : S_TEXT/UTF8
  78. Codec ID/Info : UTF-8 Plain Text
  79. Duration : 1 h 26 min
  80. Bit rate : 85 b/s
  81. Count of elements : 1574
  82. Stream size : 53.9 KiB (0%)
  83. Language : Czech
  84. Default : No
  85. Forced : No

  86. Text #4
  87. ID : 6
  88. Format : UTF-8
  89. Codec ID : S_TEXT/UTF8
  90. Codec ID/Info : UTF-8 Plain Text
  91. Duration : 1 h 26 min
  92. Bit rate : 73 b/s
  93. Count of elements : 1452
  94. Stream size : 46.9 KiB (0%)
  95. Language : Danish
  96. Default : No
  97. Forced : No

  98. Text #5
  99. ID : 7
  100. Format : UTF-8
  101. Codec ID : S_TEXT/UTF8
  102. Codec ID/Info : UTF-8 Plain Text
  103. Duration : 1 h 26 min
  104. Bit rate : 80 b/s
  105. Count of elements : 1509
  106. Stream size : 51.0 KiB (0%)
  107. Language : German
  108. Default : No
  109. Forced : No

  110. Text #6
  111. ID : 8
  112. Format : UTF-8
  113. Codec ID : S_TEXT/UTF8
  114. Codec ID/Info : UTF-8 Plain Text
  115. Duration : 1 h 29 min
  116. Bit rate : 78 b/s
  117. Count of elements : 1491
  118. Stream size : 51.2 KiB (0%)
  119. Language : Spanish
  120. Default : No
  121. Forced : No

  122. Text #7
  123. ID : 9
  124. Format : UTF-8
  125. Codec ID : S_TEXT/UTF8
  126. Codec ID/Info : UTF-8 Plain Text
  127. Duration : 1 h 26 min
  128. Bit rate : 86 b/s
  129. Count of elements : 1635
  130. Stream size : 54.7 KiB (0%)
  131. Language : French
  132. Default : No
  133. Forced : No

  134. Text #8
  135. ID : 10
  136. Format : UTF-8
  137. Codec ID : S_TEXT/UTF8
  138. Codec ID/Info : UTF-8 Plain Text
  139. Duration : 1 h 29 min
  140. Bit rate : 133 b/s
  141. Count of elements : 1597
  142. Stream size : 87.8 KiB (0%)
  143. Language : Hebrew
  144. Default : No
  145. Forced : No

  146. Text #9
  147. ID : 11
  148. Format : UTF-8
  149. Codec ID : S_TEXT/UTF8
  150. Codec ID/Info : UTF-8 Plain Text
  151. Duration : 1 h 26 min
  152. Bit rate : 82 b/s
  153. Count of elements : 1503
  154. Stream size : 52.5 KiB (0%)
  155. Language : Spanish
  156. Default : No
  157. Forced : No

  158. Text #10
  159. ID : 12
  160. Format : UTF-8
  161. Codec ID : S_TEXT/UTF8
  162. Codec ID/Info : UTF-8 Plain Text
  163. Duration : 1 h 26 min
  164. Bit rate : 140 b/s
  165. Count of elements : 1569
  166. Stream size : 89.1 KiB (0%)
  167. Language : Greek
  168. Default : No
  169. Forced : No

  170. Text #11
  171. ID : 13
  172. Format : UTF-8
  173. Codec ID : S_TEXT/UTF8
  174. Codec ID/Info : UTF-8 Plain Text
  175. Duration : 1 h 26 min
  176. Bit rate : 70 b/s
  177. Count of elements : 1474
  178. Stream size : 44.6 KiB (0%)
  179. Language : Finnish
  180. Default : No
  181. Forced : No

  182. Text #12
  183. ID : 14
  184. Format : UTF-8
  185. Codec ID : S_TEXT/UTF8
  186. Codec ID/Info : UTF-8 Plain Text
  187. Duration : 1 h 26 min
  188. Bit rate : 79 b/s
  189. Count of elements : 1589
  190. Stream size : 50.1 KiB (0%)
  191. Language : Japanese
  192. Default : No
  193. Forced : No

  194. Text #13
  195. ID : 15
  196. Format : UTF-8
  197. Codec ID : S_TEXT/UTF8
  198. Codec ID/Info : UTF-8 Plain Text
  199. Duration : 1 h 26 min
  200. Bit rate : 115 b/s
  201. Count of elements : 1739
  202. Stream size : 73.3 KiB (0%)
  203. Language : Korean
  204. Default : No
  205. Forced : No

  206. Text #14
  207. ID : 16
  208. Format : UTF-8
  209. Codec ID : S_TEXT/UTF8
  210. Codec ID/Info : UTF-8 Plain Text
  211. Duration : 1 h 26 min
  212. Bit rate : 78 b/s
  213. Count of elements : 1605
  214. Stream size : 49.5 KiB (0%)
  215. Language : Hungarian
  216. Default : No
  217. Forced : No

  218. Text #15
  219. ID : 17
  220. Format : UTF-8
  221. Codec ID : S_TEXT/UTF8
  222. Codec ID/Info : UTF-8 Plain Text
  223. Duration : 1 h 26 min
  224. Bit rate : 79 b/s
  225. Count of elements : 1697
  226. Stream size : 50.6 KiB (0%)
  227. Language : Indonesian
  228. Default : No
  229. Forced : No

  230. Text #16
  231. ID : 18
  232. Format : UTF-8
  233. Codec ID : S_TEXT/UTF8
  234. Codec ID/Info : UTF-8 Plain Text
  235. Duration : 1 h 26 min
  236. Bit rate : 77 b/s
  237. Count of elements : 1476
  238. Stream size : 48.9 KiB (0%)
  239. Language : Italian
  240. Default : No
  241. Forced : No

  242. Text #17
  243. ID : 19
  244. Format : UTF-8
  245. Codec ID : S_TEXT/UTF8
  246. Codec ID/Info : UTF-8 Plain Text
  247. Duration : 1 h 26 min
  248. Bit rate : 80 b/s
  249. Count of elements : 1168
  250. Stream size : 50.9 KiB (0%)
  251. Language : Norwegian Bokmal
  252. Default : No
  253. Forced : No

  254. Text #18
  255. ID : 20
  256. Format : UTF-8
  257. Codec ID : S_TEXT/UTF8
  258. Codec ID/Info : UTF-8 Plain Text
  259. Duration : 1 h 29 min
  260. Bit rate : 70 b/s
  261. Count of elements : 1332
  262. Stream size : 46.1 KiB (0%)
  263. Language : Dutch
  264. Default : No
  265. Forced : No

  266. Text #19
  267. ID : 21
  268. Format : UTF-8
  269. Codec ID : S_TEXT/UTF8
  270. Codec ID/Info : UTF-8 Plain Text
  271. Duration : 1 h 26 min
  272. Bit rate : 75 b/s
  273. Count of elements : 1675
  274. Stream size : 48.1 KiB (0%)
  275. Language : Polish
  276. Default : No
  277. Forced : No

  278. Text #20
  279. ID : 22
  280. Format : UTF-8
  281. Codec ID : S_TEXT/UTF8
  282. Codec ID/Info : UTF-8 Plain Text
  283. Duration : 1 h 26 min
  284. Bit rate : 89 b/s
  285. Count of elements : 1707
  286. Stream size : 56.4 KiB (0%)
  287. Title : Simplified
  288. Language : Chinese
  289. Default : No
  290. Forced : No

  291. Text #21
  292. ID : 23
  293. Format : UTF-8
  294. Codec ID : S_TEXT/UTF8
  295. Codec ID/Info : UTF-8 Plain Text
  296. Duration : 1 h 26 min
  297. Bit rate : 86 b/s
  298. Count of elements : 1708
  299. Stream size : 54.6 KiB (0%)
  300. Title : Traditional
  301. Language : Chinese
  302. Default : No
  303. Forced : No

  304. Text #22
  305. ID : 24
  306. Format : UTF-8
  307. Codec ID : S_TEXT/UTF8
  308. Codec ID/Info : UTF-8 Plain Text
  309. Duration : 1 h 26 min
  310. Bit rate : 132 b/s
  311. Count of elements : 1702
  312. Stream size : 83.9 KiB (0%)
  313. Language : Russian
  314. Default : No
  315. Forced : No

  316. Text #23
  317. ID : 25
  318. Format : UTF-8
  319. Codec ID : S_TEXT/UTF8
  320. Codec ID/Info : UTF-8 Plain Text
  321. Duration : 1 h 26 min
  322. Bit rate : 73 b/s
  323. Count of elements : 1151
  324. Stream size : 46.7 KiB (0%)
  325. Language : Swedish
  326. Default : No
  327. Forced : No

  328. Text #24
  329. ID : 26
  330. Format : UTF-8
  331. Codec ID : S_TEXT/UTF8
  332. Codec ID/Info : UTF-8 Plain Text
  333. Duration : 1 h 28 min
  334. Bit rate : 79 b/s
  335. Count of elements : 1541
  336. Stream size : 51.5 KiB (0%)
  337. Title : Brasil
  338. Language : Portuguese
  339. Default : No
  340. Forced : No

  341. Text #25
  342. ID : 27
  343. Format : UTF-8
  344. Codec ID : S_TEXT/UTF8
  345. Codec ID/Info : UTF-8 Plain Text
  346. Duration : 1 h 26 min
  347. Bit rate : 83 b/s
  348. Count of elements : 1683
  349. Stream size : 52.8 KiB (0%)
  350. Language : Portuguese
  351. Default : No
  352. Forced : No

  353. Text #26
  354. ID : 28
  355. Format : UTF-8
  356. Codec ID : S_TEXT/UTF8
  357. Codec ID/Info : UTF-8 Plain Text
  358. Duration : 1 h 26 min
  359. Bit rate : 82 b/s
  360. Count of elements : 1364
  361. Stream size : 52.0 KiB (0%)
  362. Language : Turkish
  363. Default : No
  364. Forced : No

  365. Text #27
  366. ID : 29
  367. Format : UTF-8
  368. Codec ID : S_TEXT/UTF8
  369. Codec ID/Info : UTF-8 Plain Text
  370. Duration : 1 h 26 min
  371. Bit rate : 107 b/s
  372. Count of elements : 1684
  373. Stream size : 68.3 KiB (0%)
  374. Language : Vietnamese
  375. Default : No
  376. Forced : No

  377. Text #28
  378. ID : 30
  379. Format : UTF-8
  380. Codec ID : S_TEXT/UTF8
  381. Codec ID/Info : UTF-8 Plain Text
  382. Duration : 1 h 26 min
  383. Bit rate : 85 b/s
  384. Count of elements : 1578
  385. Stream size : 54.4 KiB (0%)
  386. Language : Romanian
  387. Default : No
  388. Forced : No

  389. Text #29
  390. ID : 31
  391. Format : UTF-8
  392. Codec ID : S_TEXT/UTF8
  393. Codec ID/Info : UTF-8 Plain Text
  394. Duration : 1 h 26 min
  395. Bit rate : 229 b/s
  396. Count of elements : 1729
  397. Stream size : 145 KiB (0%)
  398. Language : Thai
  399. Default : No
  400. Forced : No
复制代码

美国男孩(港) / 美国儿子 / 美国式儿子/美国之子4k American.Son.2019.2160p.NF.WEB-DL.x265.10bit.HDR.DDP5.1.电影下载

美国之子4k American.Son.2019.2160p.NF.WEB-DL.x265.10bit.HDR.DDP5.1【10.33 GB】
[Hao4k]美国之子4k American.Son.2019.2160p.NF.WEB-DL.x265.10bit.HDR.DDP5.1-SWTYBLZ.torrent (52.21 KB)
回复

使用道具 举报

全部回复16

xxw8888 发表于 2021-1-27 10:28:28

xxw8888 沙发

2021-1-27 10:28:28

谢谢分享
回复 支持 反对

使用道具 举报

wzq892808 发表于 2021-1-27 11:13:04

wzq892808 板凳

2021-1-27 11:13:04

好电影,很精彩,感谢分享
回复 支持 反对

使用道具 举报

月光麦田 发表于 2021-1-27 16:35:48

月光麦田 地板

2021-1-27 16:35:48

谢谢楼主分享发片
回复 支持 反对

使用道具 举报

Makoto8023 发表于 2021-1-28 08:04:37

Makoto8023 5#

2021-1-28 08:04:37

谢谢分享
回复 支持 反对

使用道具 举报

chuchan1 发表于 2021-1-29 10:15:11

chuchan1 6#

2021-1-29 10:15:11

谢谢分享,支持一下
回复 支持 反对

使用道具 举报

yale 发表于 2021-1-29 19:23:19

yale 7#

2021-1-29 19:23:19

谢谢分享
回复 支持 反对

使用道具 举报

fengzhong-xing 发表于 2021-1-30 10:32:53

fengzhong-xing 8#

2021-1-30 10:32:53

楼主,下载显示未挂载?怎么回事?
回复 支持 反对

使用道具 举报

lazy007 发表于 2021-1-30 22:44:43

lazy007 9#

2021-1-30 22:44:43

非常好的资源 谢谢楼主
回复 支持 反对

使用道具 举报

everzhu 发表于 2021-1-31 21:38:42

everzhu 10#

2021-1-31 21:38:42

感谢楼主分享影片!
回复 支持 反对

使用道具 举报

ww6 发表于 2021-2-1 10:43:04

ww6 11#

2021-2-1 10:43:04

谢谢分享
回复 支持 反对

使用道具 举报

lch1164840694 发表于 2021-2-3 09:22:51

lch1164840694 12#

2021-2-3 09:22:51

感谢楼主
回复 支持 反对

使用道具 举报

ppp74 发表于 2021-2-13 09:43:07

ppp74 13#

2021-2-13 09:43:07

谢谢无私分享
回复 支持 反对

使用道具 举报

yzyp 发表于 2021-2-16 11:02:51

yzyp 14#

2021-2-16 11:02:51

好电影,很精彩,感谢分享
回复 支持 反对

使用道具 举报

lxq70 发表于 2021-2-16 14:28:47

lxq70 15#

2021-2-16 14:28:47

好电影,谢谢分享
回复 支持 反对

使用道具 举报

andywjhh 发表于 2021-2-17 08:45:30

andywjhh 16#

2021-2-17 08:45:30

感谢楼主的分享
回复 支持 反对

使用道具 举报

ilikehao 发表于 6 天前

ilikehao 17#

6 天前

感谢分享好资源。
回复 支持 反对

使用道具 举报

   发表回复

您需要登录后才可以回帖 登录 | 立即注册

返回列表 本版积分规则

  • 在线客服

  • 返回顶部