微博 微信

Hao4K影音

[美剧] 雪国列车(剧版) 第二季4k Snowpiercer.S02E01.2160p.美剧下载

2021-2-20 23:10:39 62597 15 |只看大图 回帖奖励 |倒序浏览 |阅读模式

大红色 楼主

2021-1-27 22:28:12

电视剧频道
电视剧封面:
电视剧名: 雪国列车(剧版) 第二季4k
年  代: 2021  
国  家: 美国
类  别: 动作 科幻 惊悚 剧情 
语  言: 英语
字  幕: 英文原版
上映日期: 2021-01-25
文件格式: mkv    
视频效果: 4K(3840x2160)    
资源大小: 13.50 GB
片  长: -
导  演: 克里斯托弗·史瑞弗
剧情简介:  汤姆·里皮斯基([年轻气盛])将与詹妮弗·康纳利、戴维德·迪格斯一起出演剧版《雪国列车》第二季的循环角色。《雪国列车》二季现正制作中。
雪国列车(剧版) 第二季4k  Snowpiercer.S02E01.2160p.NF.WEBRip.DDP5.1.Atmos.x265.美剧信息
  1. Video
  2. ID : 1
  3. Format : HEVC
  4. Format/Info : High Efficiency Video Coding
  5. Format profile : Main 10@L5.1@High
  6. Codec ID : V_MPEGH/ISO/HEVC
  7. Duration : 47 min 51 s
  8. Bit rate : 39.6 Mb/s
  9. Width : 3 840 pixels
  10. Height : 2 160 pixels
  11. Display aspect ratio : 16:9
  12. Frame rate mode : Constant
  13. Frame rate : 23.976 (24000/1001) FPS
  14. Color space : YUV
  15. Chroma subsampling : 4:2:0
  16. Bit depth : 10 bits
  17. Bits/(Pixel*Frame) : 0.199
  18. Stream size : 13.2 GiB (98%)
  19. Writing library : x265 3.4+30-g6722fce1f:[Windows][GCC 10.2.0][64 bit] 10bit
  20. Encoding settings : cpuid=1111039 / frame-threads=4 / numa-pools=24 / wpp / no-pmode / no-pme / no-psnr / no-ssim / log-level=2 / input-csp=1 / input-res=3840x2160 / interlace=0 / total-frames=68845 / level-idc=51 / high-tier=1 / uhd-bd=0 / ref=5 / no-allow-non-conformance / repeat-headers / annexb / aud / hrd / info / hash=0 / no-temporal-layers / open-gop / min-keyint=23 / keyint=250 / gop-lookahead=0 / bframes=8 / b-adapt=2 / b-pyramid / bframe-bias=0 / rc-lookahead=40 / lookahead-slices=8 / scenecut=40 / hist-scenecut=0 / radl=0 / no-splice / no-intra-refresh / ctu=64 / min-cu-size=8 / no-rect / no-amp / max-tu-size=32 / tu-inter-depth=4 / tu-intra-depth=4 / limit-tu=4 / rdoq-level=0 / dynamic-rd=0.00 / no-ssim-rd / signhide / no-tskip / nr-intra=0 / nr-inter=0 / no-constrained-intra / strong-intra-smoothing / max-merge=4 / limit-refs=1 / no-limit-modes / me=1 / subme=5 / merange=57 / temporal-mvp / no-frame-dup / no-hme / weightp / weightb / no-analyze-src-pics / deblock=-3:-3 / no-sao / no-sao-non-deblock / rd=4 / selective-sao=0 / early-skip / rskip / no-fast-intra / no-tskip-fast / no-cu-lossless / b-intra / no-splitrd-skip / rdpenalty=0 / psy-rd=2.00 / psy-rdoq=0.00 / no-rd-refine / no-lossless / cbqpoffs=0 / crqpoffs=0 / rc=crf / crf=19.0 / qcomp=0.60 / qpstep=4 / stats-write=0 / stats-read=0 / vbv-maxrate=160000 / vbv-bufsize=160000 / vbv-init=0.9 / min-vbv-fullness=50.0 / max-vbv-fullness=80.0 / crf-max=0.0 / crf-min=0.0 / ipratio=1.30 / pbratio=1.20 / aq-mode=1 / aq-strength=0.85 / no-cutree / zone-count=0 / no-strict-cbr / qg-size=32 / no-rc-grain / qpmax=69 / qpmin=0 / no-const-vbv / sar=1 / overscan=0 / videoformat=5 / range=0 / colorprim=1 / transfer=1 / colormatrix=1 / chromaloc=0 / display-window=0 / cll=0,0 / min-luma=0 / max-luma=1023 / log2-max-poc-lsb=8 / vui-timing-info / vui-hrd-info / slices=1 / no-opt-qp-pps / no-opt-ref-list-length-pps / no-multi-pass-opt-rps / scenecut-bias=0.05 / hist-threshold=0.03 / no-opt-cu-delta-qp / no-aq-motion / no-hdr10 / no-hdr10-opt / no-dhdr10-opt / no-idr-recovery-sei / analysis-reuse-level=0 / analysis-save-reuse-level=0 / analysis-load-reuse-level=0 / scale-factor=0 / refine-intra=0 / refine-inter=0 / refine-mv=1 / refine-ctu-distortion=0 / no-limit-sao / ctu-info=0 / no-lowpass-dct / refine-analysis-type=0 / copy-pic=1 / max-ausize-factor=1.0 / no-dynamic-refine / no-single-sei / no-hevc-aq / no-svt / no-field / qp-adaptation-range=1.00 / no-scenecut-aware-qpconformance-window-offsets / right=0 / bottom=0 / decoder-max-rate=0 / no-vbv-live-multi-pass
  21. Default : Yes
  22. Forced : No
  23. Color range : Limited
  24. Color primaries : BT.709
  25. Transfer characteristics : BT.709
  26. Matrix coefficients : BT.709

  27. Audio
  28. ID : 2
  29. Format : E-AC-3 JOC
  30. Format/Info : Enhanced AC-3 with Joint Object Coding
  31. Commercial name : Dolby Digital Plus with Dolby Atmos
  32. Codec ID : A_EAC3
  33. Duration : 47 min 51 s
  34. Bit rate mode : Constant
  35. Bit rate : 768 kb/s
  36. Channel(s) : 6 channels
  37. Channel layout : L R C LFE Ls Rs
  38. Sampling rate : 48.0 kHz
  39. Frame rate : 31.250 FPS (1536 SPF)
  40. Compression mode : Lossy
  41. Stream size : 263 MiB (2%)
  42. Language : English
  43. Service kind : Complete Main
  44. Default : Yes
  45. Forced : No
  46. Complexity index : 16
  47. Number of dynamic objects : 15
  48. Bed channel count : 1 channel
  49. Bed channel configuration : LFE

  50. Text #1
  51. ID : 3
  52. Format : UTF-8
  53. Codec ID : S_TEXT/UTF8
  54. Codec ID/Info : UTF-8 Plain Text
  55. Duration : 45 min 16 s
  56. Bit rate : 70 b/s
  57. Count of elements : 703
  58. Stream size : 23.4 KiB (0%)
  59. Title : SDH
  60. Language : English
  61. Default : No
  62. Forced : No

  63. Text #2
  64. ID : 4
  65. Format : UTF-8
  66. Codec ID : S_TEXT/UTF8
  67. Codec ID/Info : UTF-8 Plain Text
  68. Duration : 46 min 16 s
  69. Bit rate : 91 b/s
  70. Count of elements : 599
  71. Stream size : 31.2 KiB (0%)
  72. Language : Arabic
  73. Default : No
  74. Forced : No

  75. Text #3
  76. ID : 5
  77. Format : UTF-8
  78. Codec ID : S_TEXT/UTF8
  79. Codec ID/Info : UTF-8 Plain Text
  80. Duration : 46 min 16 s
  81. Bit rate : 52 b/s
  82. Count of elements : 598
  83. Stream size : 17.7 KiB (0%)
  84. Language : Czech
  85. Default : No
  86. Forced : No

  87. Text #4
  88. ID : 6
  89. Format : UTF-8
  90. Codec ID : S_TEXT/UTF8
  91. Codec ID/Info : UTF-8 Plain Text
  92. Duration : 46 min 16 s
  93. Bit rate : 47 b/s
  94. Count of elements : 594
  95. Stream size : 16.2 KiB (0%)
  96. Language : Danish
  97. Default : No
  98. Forced : No

  99. Text #5
  100. ID : 7
  101. Format : UTF-8
  102. Codec ID : S_TEXT/UTF8
  103. Codec ID/Info : UTF-8 Plain Text
  104. Duration : 46 min 16 s
  105. Bit rate : 53 b/s
  106. Count of elements : 598
  107. Stream size : 18.2 KiB (0%)
  108. Language : German
  109. Default : No
  110. Forced : No
复制代码

雪国列车(剧版) 第二季4k  Snowpiercer.S02E01.2160p.NF.WEBRip.DDP5.1.Atmos.x265.美剧下载

雪国列车(剧版) 第二季4k  Snowpiercer.S02E01.2160p.NF.WEBRip.DDP5.1.Atmos.x265【13.50 GB】
[Hao4k]雪国列车(剧版) 第二季4k Snowpiercer.S02E01.2160p.NF.WEBRip.DDP5.1.Atmos.x.torrent (68.02 KB)
回复

使用道具 举报

全部回复15

watano 发表于 2021-1-27 22:56:25

watano 沙发

2021-1-27 22:56:25

期待了很久,第一季就很赞。
回复 支持 反对

使用道具 举报

sdde 发表于 2021-1-28 08:00:47

sdde 板凳

2021-1-28 08:00:47

一共多少季
回复 支持 反对

使用道具 举报

夏羽 发表于 2021-1-28 08:44:15

夏羽 地板

2021-1-28 08:44:15

看过第一季,第二季终于出来了~
回复 支持 反对

使用道具 举报

skylee686 发表于 2021-1-28 10:39:56

skylee686 5#

2021-1-28 10:39:56

期待了很久,太棒了。
回复 支持 反对

使用道具 举报

sww287 发表于 2021-1-29 07:48:53

sww287 6#

2021-1-29 07:48:53

谢谢分享
回复 支持 反对

使用道具 举报

xuehai2005 发表于 2021-1-29 08:03:40

xuehai2005 7#

2021-1-29 08:03:40

哪有字幕?
回复 支持 反对

使用道具 举报

uqsp 发表于 2021-1-29 14:28:06

uqsp 8#

2021-1-29 14:28:06

没有字幕。。。可惜
回复 支持 反对

使用道具 举报

pirateboy 发表于 2021-2-3 00:35:57

pirateboy 9#

2021-2-3 00:35:57

内置有中文
回复 支持 反对

使用道具 举报

兰帕德玩摇滚 发表于 2021-2-3 13:43:35 Hao4K手机版

兰帕德玩摇滚 10#

2021-2-3 13:43:35

求第二集
回复 支持 反对

使用道具 举报

世爵39 发表于 2021-2-8 20:58:53

世爵39 11#

2021-2-8 20:58:53


期待了很久,太棒了
回复 支持 反对

使用道具 举报

世爵39 发表于 2021-2-8 21:01:21

世爵39 12#

2021-2-8 21:01:21

雪国列车
回复 支持 反对

使用道具 举报

世爵39 发表于 2021-2-8 21:34:37

世爵39 13#

2021-2-8 21:34:37

看过第一季,第二季终于出来了
回复 支持 反对

使用道具 举报

yly647095 发表于 2021-2-11 08:21:58

yly647095 14#

2021-2-11 08:21:58

请问:第一季有吗?
回复 支持 反对

使用道具 举报

pjwlz 发表于 2021-2-16 19:47:03

pjwlz 15#

2021-2-16 19:47:03

期待了很久
回复 支持 反对

使用道具 举报

kwan11111 发表于 2021-2-20 23:10:39

kwan11111 16#

2021-2-20 23:10:39

电影版主角是不是美队,怎么换成黑鬼了
回复 支持 反对

使用道具 举报

   发表回复

您需要登录后才可以回帖 登录 | 立即注册

返回列表 本版积分规则

:
白银玩家
:
未填写

主题

帖子

积分995

图文推荐

  • 将羊毛薅到一根不剩--百度网盘免会员高速下

    百度网盘是要购买会员的,30大洋/月的会员费对于

  • Yuran DIY制定硬盘(UHD-BD)片源存储管理规

    有言在先:原创不易,深夜写成。也很忙,暂不回复

  • 2019年你必须知道的4k庭影院音响摆位8大重

    2019年你必须知道的4k庭影院音响摆位8大重点

  • 关于收藏《4KUHD蓝光原盘》还是《4KUHD蓝光

    《4K UHD 蓝光原盘》 优点:有导航菜单和电影幕后

  • 家庭影院组建指南:如何组建低预算的家庭影

    如何组建低预算的家庭影院 — 不发烧只为看电影

  • 在线客服

  • 返回顶部